<?xml version="1.0" standalone="no"?>
<!DOCTYPE svg PUBLIC "-//W3C//DTD SVG 1.1//EN" "http://www.w3.org/Graphics/SVG/1.1/DTD/svg11.dtd" >
<svg xmlns="http://www.w3.org/2000/svg">
<metadata></metadata>
<defs>
<font id="pragmaticabook" horiz-adv-x="1187" >
<font-face units-per-em="2048" ascent="1638" descent="-410" />
<missing-glyph horiz-adv-x="477" />
<glyph unicode="&#xfb01;" horiz-adv-x="1044" d="M27 913v127h192v142q0 134 67.5 197t207.5 63q9 0 133 -8v-127q-29 2 -127 2q-101 0 -101 -144v-125h502v-1040h-180v913h-322v-913h-180v913h-192zM721 1245v189h180v-189h-180z" />
<glyph unicode="&#xfb02;" horiz-adv-x="1048" d="M27 913v127h192v142q0 134 67.5 197t207.5 63q9 0 133 -8v-127q-29 2 -127 2q-101 0 -101 -144v-125h322v394h180v-1434h-180v913h-322v-913h-180v913h-192z" />
<glyph horiz-adv-x="2048" />
<glyph horiz-adv-x="2048" />
<glyph unicode="&#xd;" horiz-adv-x="2048" />
<glyph unicode=" "  horiz-adv-x="477" />
<glyph unicode="&#x09;" horiz-adv-x="477" />
<glyph unicode="&#xa0;" horiz-adv-x="477" />
<glyph unicode="!" horiz-adv-x="636" d="M217 0v223h203v-223h-203zM217 883v551h203v-551l-51 -471h-101z" />
<glyph unicode="&#x22;" horiz-adv-x="860" d="M102 1434h271l-82 -394h-107zM487 1434h271l-82 -394h-107z" />
<glyph unicode="#" d="M-20 365l26 174h275l57 366h-275l27 174h275l53 342h139l-53 -342h293l53 342h139l-53 -342h274l-26 -174h-275l-57 -366h274l-26 -174h-275l-53 -345h-139l53 345h-293l-53 -345h-139l53 345h-274zM420 539h293l57 366h-293z" />
<glyph unicode="$" d="M76 426h182q3 -71 24 -126t50.5 -88t69 -55t75 -30.5t72.5 -9.5v545q-112 24 -193 58.5t-127 71.5t-73 85.5t-35 92t-8 101.5q0 94 30.5 166t76.5 113t107 66.5t114.5 34t107.5 7.5v133h108v-133q40 -1 81 -8t90 -22.5t90 -43.5t75.5 -67t53 -99t16.5 -133h-176 q-2 95 -66 166t-164 72v-506q85 -15 154 -39t115.5 -51.5t81 -63t53.5 -68t30.5 -71t15 -68t3.5 -63.5q0 -74 -18.5 -135.5t-47 -103t-70 -74t-81.5 -51.5t-86.5 -31t-81 -16.5t-68.5 -6.5v-165h-108v165q-228 9 -344 118t-129 333zM291 1077q0 -100 63 -158t195 -83v487 q-31 -1 -61 -6t-67.5 -21.5t-64.5 -42t-46 -71t-19 -105.5zM657 117q124 -3 197.5 79.5t73.5 196.5q0 66 -27 115t-71.5 76t-86 40.5t-86.5 18.5v-526z" />
<glyph unicode="%" horiz-adv-x="1865" d="M109 1040q0 96 24.5 171.5t61 119t84 72t87.5 38t78 9.5t78 -9.5t87.5 -38t84.5 -72t61.5 -119t24.5 -171.5q0 -49 -8.5 -99.5t-32 -107.5t-59.5 -100.5t-97 -72.5t-139 -29t-139 29t-97 72.5t-59 100.5t-31.5 107.5t-8.5 99.5zM240 1040q0 -34 4 -68t17 -78t34 -76.5 t59.5 -55.5t89.5 -23q62 0 106 32.5t64 84.5t27.5 96t7.5 88q0 68 -13.5 122t-34.5 87t-49.5 54.5t-54.5 29.5t-53 8q-34 0 -67 -14.5t-65 -46t-52 -94t-20 -146.5zM399 0l930 1434h146l-930 -1434h-146zM1085 393q0 96 24.5 171.5t61.5 119t84.5 72t87.5 38t78 9.5t78 -9.5 t87.5 -38t84.5 -72t61.5 -119t24.5 -171.5q0 -49 -8.5 -99.5t-32 -107.5t-59.5 -100.5t-97 -72.5t-139 -29t-139 29t-97 72.5t-59.5 100.5t-32 107.5t-8.5 99.5zM1217 393q0 -34 4 -68t17 -78t34 -76.5t59.5 -55.5t89.5 -23q62 0 106 32.5t64 84.5t27.5 96t7.5 88 q0 68 -13.5 122t-34.5 87t-49.5 54.5t-54.5 29.5t-53 8q-34 0 -67 -14.5t-65 -46t-52 -94t-20 -146.5z" />
<glyph unicode="&#x26;" horiz-adv-x="1398" d="M147 383q0 158 86.5 261t266.5 185q-142 167 -142 310q0 137 95.5 216t238.5 79q148 0 231 -85t83 -204q0 -64 -24.5 -123.5t-65.5 -103.5t-86 -76.5t-93 -53.5l314 -372q21 33 33.5 77.5t25.5 133.5h162q-20 -111 -44 -185t-75 -151l246 -291h-215l-142 168 q-66 -103 -188.5 -157t-255.5 -54q-95 0 -172.5 25.5t-128.5 67.5t-85.5 98t-49.5 115t-15 120zM334 385q0 -38 10.5 -76t33 -74t55.5 -63.5t82 -44t108 -16.5q102 0 188.5 45t136.5 129l-354 428q-260 -103 -260 -328zM526 1143q0 -33 8 -63t29.5 -65t32 -49.5t43.5 -55.5 q2 -3 3.5 -4.5t3 -4t3.5 -4.5q84 31 138.5 97.5t54.5 154.5q0 61 -43 105t-109 44q-65 0 -114.5 -38t-49.5 -117z" />
<glyph unicode="'" horiz-adv-x="475" d="M102 1434h271l-82 -394h-107z" />
<glyph unicode="(" horiz-adv-x="747" d="M145 528q0 143 21.5 260.5t87.5 277.5t188 368h136q-250 -484 -250 -906q0 -217 69 -456t181 -449h-136q-122 208 -188 368t-87.5 277t-21.5 260z" />
<glyph unicode=")" horiz-adv-x="747" d="M170 -377q250 482 250 905q0 422 -250 906h135q95 -151 158 -288.5t91 -251.5t38 -195.5t10 -170.5t-10 -170.5t-38 -195t-91 -251t-158 -288.5h-135z" />
<glyph unicode="*" horiz-adv-x="952" d="M135 1190l33 96l258 -82v271h102v-271l256 82l33 -96l-254 -82l160 -221l-84 -62l-162 222l-164 -222l-82 62l160 221z" />
<glyph unicode="+" horiz-adv-x="1228" d="M102 664v127h449v448h127v-448h448v-127h-448v-449h-127v449h-449z" />
<glyph unicode="," horiz-adv-x="636" d="M217 0v223h203v-286q0 -58 -20 -103.5t-52.5 -72.5t-64.5 -42t-66 -22v113q42 4 72 41.5t30 85.5v63h-102z" />
<glyph unicode="-" horiz-adv-x="864" d="M162 461v174h540v-174h-540z" />
<glyph unicode="." horiz-adv-x="636" d="M217 0v223h203v-223h-203z" />
<glyph unicode="/" horiz-adv-x="860" d="M0 -379l731 1813h129l-731 -1813h-129z" />
<glyph unicode="0" d="M92 717q0 151 23 273t57.5 199.5t84.5 135t94 85.5t97.5 44.5t83.5 19.5t62 3t62 -3t83.5 -19.5t97.5 -44.5t94 -85.5t84.5 -135t57.5 -199.5t23 -273t-23 -273t-57.5 -199.5t-84.5 -135t-94 -85.5t-97.5 -44.5t-83.5 -19.5t-62 -3t-62 3t-83.5 19.5t-97.5 44.5t-94 85.5 t-84.5 135t-57.5 199.5t-23 273zM283 717q0 -127 17 -231.5t52.5 -188.5t97 -131t144.5 -47t144.5 47t97 131t52.5 188.5t17 231.5t-17 231.5t-52.5 188.5t-97 131t-144.5 47t-144.5 -47t-97 -131t-52.5 -188.5t-17 -231.5z" />
<glyph unicode="1" d="M266 1077v101h43q133 0 229 70.5t113 185.5h135v-1434h-192v1077h-328z" />
<glyph unicode="2" d="M117 0q0 57 8 108t20 93t36 83.5t45 72t59 66.5t65.5 59t78 58t82.5 55.5t91 57.5q7 5 36.5 23t40.5 25.5t38.5 26.5t40 30.5t35 33t34 39t27 42.5t23 49.5t13 55t5.5 62.5q0 132 -78.5 203.5t-210.5 71.5q-136 0 -216.5 -78t-80.5 -207v-53h-188v43q0 32 4 66t17.5 80.5 t34.5 88t59 83t87.5 71.5t124 49t164.5 19q221 0 350.5 -116t129.5 -319q0 -68 -9 -120t-38 -101t-56 -82.5t-92 -83t-114 -82t-152 -98.5q-144 -91 -212 -162.5t-89 -150.5h757v-162h-970z" />
<glyph unicode="3" d="M82 436h184q1 -8 3 -23.5t3 -23.5q3 -21 6.5 -37.5t13 -47t22.5 -54t36 -51t52 -45.5t73 -30.5t96 -12.5q84 0 147.5 23.5t96 56.5t52.5 78t25 78t5 67q0 119 -70.5 188.5t-191.5 69.5h-148v155h58q21 0 37.5 0.5t51 5.5t61 14t59 27.5t54 43.5t36 65.5t14.5 91.5 q0 37 -7.5 70t-27.5 66.5t-51 57.5t-81.5 39t-115.5 15q-20 0 -37 -1t-47.5 -8t-54 -19t-51 -36.5t-45.5 -58t-30.5 -86t-12.5 -117.5h-178q0 35 2.5 66.5t13 82.5t28 93t52.5 88t82.5 77.5t120.5 52t164 20.5q113 0 199.5 -31t133 -74.5t75.5 -101.5t37.5 -102t8.5 -85 q0 -117 -64.5 -202t-170.5 -115v-4q116 -16 196 -112t80 -251q0 -206 -137 -324t-356 -118q-119 0 -210.5 32.5t-144.5 81t-87 115.5t-46 126t-14 124z" />
<glyph unicode="4" d="M47 332v162l674 940h194v-940h226v-162h-226v-332h-192v332h-676zM231 494h492v688z" />
<glyph unicode="5" d="M94 367h189q4 -41 20 -80.5t47.5 -81.5t90.5 -68t137 -26q26 0 49 2t58.5 10t64 21.5t60 40.5t52.5 63t35 92t14 125q0 91 -26.5 159t-73 106t-100 55.5t-115.5 17.5q-78 0 -162.5 -34t-118.5 -91h-180l101 756h774v-162h-633l-58 -424q121 108 324 108q201 0 325 -131.5 t124 -357.5q0 -110 -31 -201.5t-92.5 -161t-161.5 -108.5t-229 -39q-106 0 -190 27.5t-135.5 69t-87 98.5t-51 108.5t-20.5 106.5z" />
<glyph unicode="6" d="M90 698q0 158 24.5 284.5t60 206t89.5 138t99.5 86.5t105.5 43.5t91 18t71 2.5q24 0 47 -1.5t65 -9t78 -21t79 -40.5t75.5 -63.5t60 -94.5t39.5 -129h-172q-12 49 -32.5 86t-48 58.5t-52 35t-56 18.5t-47 6t-38.5 1q-86 0 -151 -34.5t-101.5 -87t-59 -126.5t-29.5 -140 t-7 -142h4q112 151 350 151q202 0 331.5 -129.5t129.5 -351.5q0 -227 -131.5 -366.5t-360.5 -139.5q-124 0 -215 35.5t-160 118.5t-104 229.5t-35 357.5zM293 459q0 -68 19.5 -129.5t57.5 -111t100.5 -78.5t141.5 -29q76 0 135 29.5t94 80.5t52.5 112.5t17.5 131.5 q0 139 -78.5 232.5t-224.5 93.5q-149 0 -232 -90.5t-83 -241.5z" />
<glyph unicode="7" d="M70 1272v162h1046v-131q-138 -155 -229.5 -305t-167.5 -339q-67 -161 -102 -310.5t-56 -348.5h-205q45 343 172 643q71 164 173.5 329t226.5 300h-858z" />
<glyph unicode="8" d="M111 406q0 129 70.5 234t189.5 136q-96 34 -151.5 122t-55.5 194q0 49 11 98t41 102t76.5 93t124.5 66t177 26t177 -26t124.5 -66t76.5 -93t41 -102t11 -98q0 -106 -55.5 -194t-151.5 -122q119 -31 189.5 -136t70.5 -234q0 -94 -29 -174t-86.5 -142.5t-151.5 -97.5 t-216 -35t-216 35t-151.5 97.5t-86.5 142.5t-29 174zM295 416q0 -77 26.5 -137.5t70.5 -96t95.5 -53.5t106.5 -18q54 0 105 18t95.5 53.5t71.5 96t27 137.5q0 39 -8 75.5t-29 74.5t-53.5 66t-86.5 46t-122 18t-122 -18t-86.5 -46t-53.5 -66t-29 -74.5t-8 -75.5zM340 1085 q0 -106 61.5 -173.5t192.5 -67.5t192.5 67.5t61.5 173.5q0 27 -4.5 54t-21 61.5t-42.5 60.5t-74.5 44t-111.5 18t-111.5 -18t-74.5 -44t-42.5 -60.5t-21 -61.5t-4.5 -54z" />
<glyph unicode="9" d="M90 971q0 227 131.5 366.5t360.5 139.5q58 0 106.5 -6.5t102.5 -26.5t96.5 -53t83 -90t67 -133t42.5 -186.5t16 -246.5q0 -778 -541 -778q-25 0 -47.5 1.5t-64.5 9t-78 20.5t-79 40t-75.5 63.5t-60 94.5t-39.5 129h172q14 -58 42.5 -99.5t56.5 -61t67.5 -30.5t59 -12 t48.5 -1q348 0 348 530h-4q-113 -152 -350 -152q-202 0 -331.5 130t-129.5 352zM274 969q0 -140 78.5 -233t225.5 -93q149 0 232 90.5t83 241.5q0 68 -19.5 129.5t-57.5 111t-101 78.5t-142 29q-76 0 -135 -29.5t-94 -80.5t-52.5 -112.5t-17.5 -131.5z" />
<glyph unicode=":" horiz-adv-x="636" d="M217 0v223h203v-223h-203zM217 817v223h203v-223h-203z" />
<glyph unicode=";" horiz-adv-x="636" d="M217 0v223h203v-286q0 -58 -20 -103.5t-52.5 -72.5t-64.5 -42t-66 -22v113q42 4 72 41.5t30 85.5v63h-102zM217 817v223h203v-223h-203z" />
<glyph unicode="&#x3c;" horiz-adv-x="1370" d="M123 651v99l1014 583l61 -110l-919 -523l919 -522l-61 -110z" />
<glyph unicode="=" horiz-adv-x="1228" d="M102 438v127h1024v-127h-1024zM102 848v127h1024v-127h-1024z" />
<glyph unicode="&#x3e;" horiz-adv-x="1370" d="M172 178l920 522l-920 523l61 110l1014 -583v-99l-1014 -583z" />
<glyph unicode="?" horiz-adv-x="1122" d="M109 1001q-3 75 7.5 139.5t42.5 126.5t83 105t134.5 69.5t192.5 26.5q204 0 324.5 -97t120.5 -273q0 -113 -48 -191t-163 -176q-41 -34 -65 -56t-53 -57t-42.5 -74.5t-13.5 -84.5v-43h-150q-9 79 11 163t81 148q27 29 84 79t90.5 82.5t62 87.5t28.5 114q0 29 -7.5 58 t-27 61t-48.5 56t-77.5 40t-108.5 16q-32 0 -61 -3.5t-73.5 -22t-75 -50t-52 -95t-18.5 -149.5h-178zM451 0v223h202v-223h-202z" />
<glyph unicode="@" horiz-adv-x="1767" d="M123 719q0 220 102 394.5t275 269t383 94.5q151 0 277.5 -38.5t215 -105.5t150 -158.5t90.5 -196t29 -218.5q0 -82 -25 -162.5t-71 -147.5t-118.5 -108t-158.5 -41q-139 0 -182 98q-56 -110 -250 -110q-165 0 -260 109t-95 294q0 173 91.5 288.5t248.5 115.5 q167 0 242 -113h6v84h156v-516q0 -72 20.5 -95.5t57.5 -23.5q54 0 95.5 30.5t65.5 79.5t36 105t12 113q0 142 -49.5 257.5t-135.5 190t-200.5 114.5t-247.5 40q-142 0 -262.5 -53t-200 -142.5t-124 -205.5t-44.5 -242q0 -131 37 -240t99 -182.5t144.5 -125t170.5 -74.5 t180 -23q177 0 321 94l60 -109q-93 -55 -182 -78.5t-199 -23.5q-159 0 -296.5 50.5t-241 144.5t-163 240t-59.5 327zM657 690q0 -48 9 -91t30 -85t63 -67t101 -25q60 0 102 26t61.5 69.5t27.5 85t8 87.5q0 127 -49 199t-148 72q-103 0 -154 -77.5t-51 -193.5z" />
<glyph unicode="A" horiz-adv-x="1273" d="M-8 0l543 1434h204l543 -1434h-207l-135 371h-606l-135 -371h-207zM387 532h500l-250 707z" />
<glyph unicode="B" horiz-adv-x="1411" d="M174 0v1434h629q100 0 177.5 -22t124 -57.5t76 -85t40 -97.5t10.5 -103q0 -115 -69.5 -203.5t-170.5 -103.5v-6q40 -7 77.5 -20t79.5 -41t72.5 -65.5t51 -97.5t20.5 -133q0 -399 -512 -399h-606zM367 162h399q48 0 86.5 4t86.5 19t80 41t54.5 74.5t22.5 115.5 q0 132 -85.5 190t-244.5 58h-399v-502zM367 825h387q148 0 214 62.5t66 161.5q0 29 -5 55.5t-22.5 58.5t-46 55t-80 38.5t-120.5 15.5h-393v-447z" />
<glyph unicode="C" horiz-adv-x="1458" d="M92 692q0 156 32 282.5t80 206.5t117 139.5t129 88t132 45.5t110 20t76 3q95 0 175.5 -15.5t138.5 -42t104.5 -65t76.5 -80t51 -91.5t32 -96t16 -96h-193q-4 38 -14 74.5t-37.5 84t-69 82t-114.5 59t-166 24.5q-104 0 -186 -34.5t-134.5 -92t-87 -138t-49 -166.5 t-14.5 -184q0 -167 57.5 -298t168.5 -207t259 -76q171 0 284.5 100.5t121.5 255.5h192q-6 -48 -17.5 -93.5t-34 -98.5t-53 -98t-78 -88t-106 -73.5t-140 -48.5t-177.5 -18q-319 0 -500.5 195.5t-181.5 539.5z" />
<glyph unicode="D" horiz-adv-x="1472" d="M174 0v1434h526q34 0 63 -1.5t82 -8.5t97.5 -20t101.5 -38.5t102.5 -60.5t91 -90t76 -123t49.5 -163.5t19 -207.5q0 -146 -30.5 -262t-75 -190t-115.5 -127.5t-132 -80t-145.5 -41.5t-134.5 -17.5t-120 -2.5h-455zM367 162h268q278 0 410.5 134.5t132.5 420.5 q0 126 -27.5 224t-73.5 159.5t-110.5 101t-132 55t-144.5 15.5h-323v-1110z" />
<glyph unicode="E" horiz-adv-x="1253" d="M174 0v1434h1022v-162h-829v-451h751v-162h-751v-497h852v-162h-1045z" />
<glyph unicode="F" horiz-adv-x="1163" d="M174 0v1434h963v-162h-770v-467h673v-162h-673v-643h-193z" />
<glyph unicode="G" horiz-adv-x="1515" d="M92 731q0 358 188 552t513 194q111 0 204.5 -26t158.5 -70t113 -104.5t73.5 -127t33.5 -139.5h-192q-3 42 -16 82t-42.5 81.5t-72.5 72t-111.5 50t-153.5 19.5q-93 0 -169.5 -25t-126.5 -64.5t-87.5 -95t-57.5 -108t-32 -113.5t-15 -102t-3 -82q0 -31 2.5 -67t14.5 -98 t31 -118t56.5 -117t87 -105t126.5 -72.5t171 -28.5q101 0 180 32t125.5 81t77 114t41.5 123.5t11 116.5h-410v162h586v-748h-150v231h-4q-62 -130 -185 -202t-292 -72q-107 0 -202 24.5t-182.5 82.5t-151 145.5t-101 221t-37.5 300.5z" />
<glyph unicode="H" horiz-adv-x="1454" d="M174 0v1434h193v-598h720v598h193v-1434h-193v674h-720v-674h-193z" />
<glyph unicode="I" horiz-adv-x="540" d="M174 0v1434h193v-1434h-193z" />
<glyph unicode="J" horiz-adv-x="1064" d="M47 401v74h193q0 -181 54.5 -268.5t192.5 -87.5q60 0 103.5 18t69 47.5t40.5 77t20 97.5t5 118v957h193v-938q0 -284 -100.5 -411.5t-332.5 -127.5q-37 0 -70 3t-79.5 13.5t-84 28.5t-77 51.5t-66.5 79t-44 114.5t-17 154z" />
<glyph unicode="K" horiz-adv-x="1366" d="M174 0v1434h193v-711l708 711h260l-598 -590l637 -844h-256l-522 715l-229 -223v-492h-193z" />
<glyph unicode="L" horiz-adv-x="1083" d="M174 0v1434h193v-1272h729v-162h-922z" />
<glyph unicode="M" horiz-adv-x="1822" d="M174 0v1434h289l448 -1180l449 1180h289v-1434h-193v1149l4 55h-6l-465 -1204h-155l-467 1204h-5l5 -55v-1149h-193z" />
<glyph unicode="N" horiz-adv-x="1515" d="M174 0v1434h213l762 -1137v1137h192v-1434h-211l-763 1137v-1137h-193z" />
<glyph unicode="O" horiz-adv-x="1552" d="M92 717q0 185 50.5 330t142 238.5t216 142.5t275.5 49q100 0 193 -22.5t184 -77.5t158 -139.5t108 -218t41 -302.5q0 -121 -21 -223.5t-54.5 -175t-82.5 -131.5t-97.5 -96t-107.5 -64t-104 -40t-95.5 -20.5t-74 -8.5t-47.5 -1q-25 0 -49 1t-75 8.5t-95.5 20.5t-103.5 40 t-107 64t-97 96t-82 131.5t-54 175t-21 223.5zM297 717q0 -54 5 -106t18.5 -113t35.5 -113.5t59.5 -102.5t86 -85t119 -56.5t155.5 -21.5q30 0 58 2.5t79 15.5t93.5 35t90.5 67t81 106t55 157t22 215q0 129 -29 236.5t-86.5 189t-150 127t-213.5 45.5q-90 0 -164 -25.5 t-122.5 -65.5t-85.5 -96t-56.5 -109.5t-31.5 -115t-15.5 -103.5t-3.5 -83z" />
<glyph unicode="P" horiz-adv-x="1308" d="M174 0v1434h584q485 0 485 -412q0 -451 -504 -451h-372v-571h-193zM367 733h352q169 0 248.5 71t79.5 214q0 132 -80.5 193t-247.5 61h-352v-539z" />
<glyph unicode="Q" horiz-adv-x="1552" d="M92 717q0 58 6.5 119t26.5 138t51 145t84.5 135t122.5 115.5t170.5 78t222.5 29.5q151 0 275.5 -49t216 -142.5t142 -238.5t50.5 -330q0 -69 -6.5 -129t-25.5 -142t-63.5 -164.5t-111.5 -154.5l162 -178l-106 -101l-170 191q-138 -82 -363 -82q-115 0 -212 26t-166.5 70 t-123.5 105.5t-87.5 128.5t-55.5 143.5t-30.5 146t-8.5 140.5zM297 717q0 -52 5 -103t18.5 -112t35.5 -113.5t59.5 -103.5t86 -86.5t119 -57.5t155.5 -22q60 0 126.5 14t111.5 43l-160 178l111 97l161 -183q67 86 98 192.5t31 256.5q0 110 -19 201t-49.5 151.5t-74 107 t-86 72t-91.5 41.5t-85.5 20.5t-73.5 4.5q-38 0 -76 -5t-87 -21t-91.5 -41.5t-85 -72t-72.5 -107t-48.5 -151t-18.5 -200.5z" />
<glyph unicode="R" horiz-adv-x="1394" d="M174 0v1434h635q475 0 475 -385q0 -128 -66.5 -229.5t-179.5 -125.5v-6q40 -15 71.5 -34.5t52.5 -39t36.5 -47.5t23.5 -49.5t13 -56t6.5 -57t3.5 -62.5q1 -25 2 -75.5t2 -66t3 -49t5.5 -46t9.5 -35t14.5 -37.5t21.5 -33h-203q-35 48 -44 102.5t-9 200.5q0 37 -1.5 63.5 t-7.5 61t-17 58t-31 48.5t-48 40t-70.5 24.5t-95.5 9.5h-409v-608h-193zM367 770h430q32 0 65 5.5t73.5 22t71 43.5t51.5 75.5t21 111.5q0 69 -22.5 117.5t-66 75.5t-97.5 39t-125 12h-401v-502z" />
<glyph unicode="S" horiz-adv-x="1343" d="M92 455h193v-12q0 -138 106 -229q111 -95 303 -95q178 0 265.5 76.5t87.5 189.5q0 51 -18 91t-44.5 65t-68.5 45.5t-76 30.5t-82 20q-31 7 -91 19q-82 17 -122 26.5t-107 29t-101 37.5t-78.5 48.5t-65.5 66.5t-36.5 87t-15.5 114q0 198 147 305t396 107q128 0 229 -33.5 t163.5 -92t97 -132t40.5 -158.5h-192q-6 49 -23.5 89t-40.5 65.5t-54.5 45t-60 29.5t-62.5 16t-56.5 7.5t-46.5 1.5q-150 0 -241 -65t-91 -175q0 -49 19 -86t48 -59.5t77.5 -40.5t91 -28t106.5 -22q11 -2 17 -3q200 -38 288 -73q192 -77 240 -239q18 -62 18 -135 q0 -88 -26 -158.5t-64.5 -114.5t-96.5 -76.5t-106 -47.5t-110.5 -24t-93.5 -10t-70 -1q-51 0 -96.5 3.5t-106 16t-110 33.5t-101 59t-87.5 89t-61 127t-30 170z" />
<glyph unicode="T" horiz-adv-x="1177" d="M27 1272v162h1124v-162h-465v-1272h-192v1272h-467z" />
<glyph unicode="U" horiz-adv-x="1425" d="M147 555v879h193v-854q0 -47 1.5 -81.5t9.5 -86t22 -88.5t42 -78t66.5 -67t97.5 -43t134 -17q206 0 289 112.5t83 348.5v854h193v-879q0 -94 -14.5 -174t-38 -137t-59.5 -103t-71.5 -75.5t-82 -51t-83 -32.5t-82.5 -17t-73 -7t-61 -1q-109 0 -196 21t-145.5 54t-101 83.5 t-66 100t-37 114t-17 114t-3.5 111.5z" />
<glyph unicode="V" horiz-adv-x="1216" d="M-8 1434h211l405 -1235l406 1235h211l-502 -1434h-229z" />
<glyph unicode="W" horiz-adv-x="1683" d="M-82 1434h217l299 -1205l297 1205h221l297 -1205l299 1205h217l-381 -1434h-245l-297 1206l-297 -1206h-246z" />
<glyph unicode="X" horiz-adv-x="1167" d="M-41 0l502 733l-475 701h239l359 -564l358 564h240l-475 -701l501 -733h-247l-377 596l-377 -596h-248z" />
<glyph unicode="Y" horiz-adv-x="927" d="M-164 1434h230l399 -664l397 664h230l-531 -836v-598h-192v598z" />
<glyph unicode="Z" horiz-adv-x="1214" d="M53 0v176l842 1096h-797v162h1022v-154l-831 -1118h872v-162h-1108z" />
<glyph unicode="[" horiz-adv-x="757" d="M217 -379v1813h432v-127h-252v-1559h252v-127h-432z" />
<glyph unicode="\" horiz-adv-x="860" d="M0 1434h129l731 -1813h-129z" />
<glyph unicode="]" horiz-adv-x="757" d="M109 -252h249v1559h-249v127h432v-1813h-432v127z" />
<glyph unicode="^" horiz-adv-x="905" d="M115 987l245 447h185l246 -447h-144l-194 359l-195 -359h-143z" />
<glyph unicode="_" horiz-adv-x="1017" d="M0 -272h1018v-107h-1018v107z" />
<glyph unicode="`" horiz-adv-x="638" d="M86 1434h217l143 -271h-163z" />
<glyph unicode="a" horiz-adv-x="1132" d="M76 272q0 72 21.5 123t76.5 94.5t156.5 71t255.5 41.5q115 7 144 18q44 16 54 70q4 22 4 55q0 15 -1 27.5t-5.5 35t-13 40.5t-26 39t-41 34.5t-61.5 23t-85 9.5q-24 0 -44 -1.5t-56 -7.5t-63 -20.5t-53.5 -37.5t-40.5 -63q-13 -37 -13 -84v-7h-172q0 46 10 90t40 92.5 t76.5 83.5t128 58.5t187.5 23.5q58 0 109 -7t110 -29.5t101 -58.5t69 -102q25 -61 25 -141v-12l-11 -481q0 -32 0.5 -45t6 -33.5t16.5 -28t32 -13t54 -3.5v-127q-33 -8 -82 -8q-86 0 -128 28.5t-58 122.5q-51 -93 -147 -138.5t-210 -45.5q-171 0 -268.5 77t-97.5 236z M262 279q0 -90 55.5 -141.5t145.5 -51.5q46 0 86.5 9t82.5 34t73 64t52.5 103.5t26.5 147.5l4 88q-19 -15 -44 -24t-45.5 -11.5t-65 -7t-74.5 -8.5q-134 -23 -164 -31q-98 -29 -123 -101q-10 -30 -10 -70z" />
<glyph unicode="b" horiz-adv-x="1230" d="M147 0v1434h181v-529q41 88 132 132t210 44q93 0 168 -25t123 -63t84 -92.5t54 -104t28.5 -108.5t13 -94.5t2.5 -71.5q0 -130 -31.5 -232t-80.5 -162.5t-114.5 -100t-126.5 -54t-124 -14.5q-218 0 -344 184h-7v-143h-168zM315 526q0 -118 26.5 -206t71.5 -137.5t98.5 -73 t115.5 -23.5q53 0 100 14t88.5 46.5t71.5 82t47.5 124.5t17.5 169q0 113 -25 198t-69 135t-99.5 74.5t-121.5 24.5q-141 0 -231.5 -106.5t-90.5 -321.5z" />
<glyph unicode="c" horiz-adv-x="1122" d="M88 528q0 79 12.5 151t46.5 147.5t87.5 130t143.5 89.5t206 35q106 0 191 -29.5t139 -81t85.5 -116t40.5 -139.5h-172q-11 65 -39 113t-57.5 71.5t-69.5 36.5t-63.5 15.5t-50.5 2.5q-82 0 -143 -33t-96.5 -92t-52.5 -134t-17 -167q0 -91 18.5 -169t55.5 -140t100.5 -97.5 t146.5 -35.5q59 0 107 19t78 48t51 68t30 76t11 74h172q-4 -45 -15 -91t-42.5 -106.5t-78 -105.5t-129.5 -77t-188 -32q-32 0 -61.5 2t-84 14t-99 33t-95.5 63.5t-86 100.5t-58.5 150t-23.5 206z" />
<glyph unicode="d" horiz-adv-x="1226" d="M88 522q0 51 4.5 100t18.5 106t35.5 106t58 95.5t84 79t116.5 52.5t152 20q115 0 199 -38.5t143 -137.5v529h180v-1434h-168v143h-6q-16 -31 -39 -58.5t-62.5 -58t-102.5 -49t-140 -18.5q-223 0 -348 154t-125 409zM279 522q0 -94 16 -168.5t44.5 -120t60.5 -76.5 t71 -45.5t68.5 -20t60.5 -5.5q62 0 115.5 24t98.5 74.5t71 138t26 203.5q0 109 -25.5 193t-70.5 134.5t-102 75.5t-123 25q-138 0 -224.5 -107.5t-86.5 -324.5z" />
<glyph unicode="e" horiz-adv-x="1167" d="M88 516q0 40 2.5 77t14.5 96.5t31.5 109.5t58 104t90 91.5t132 62t179.5 24.5q86 0 157 -19.5t119 -50t84.5 -77t58 -92.5t35.5 -105t19.5 -105.5t7.5 -101.5q0 -8 1 -25.5t1 -25.5h-800q0 -70 18.5 -137t56 -125.5t103.5 -94.5t151 -36q123 0 196.5 61t92.5 154h172 q-9 -48 -27 -92.5t-53.5 -91t-84 -80.5t-123.5 -56t-167 -22q-106 0 -191.5 27t-139 66.5t-93 97t-58.5 107t-30 109t-12.5 89t-1.5 61.5zM279 606h610q-2 47 -9.5 90t-27.5 92t-50 84t-82 58.5t-120 23.5q-76 0 -135 -24t-93 -60.5t-56 -85t-29.5 -91.5t-7.5 -87z" />
<glyph unicode="f" horiz-adv-x="653" d="M27 913v127h192v142q0 134 67.5 197t207.5 63q9 0 133 -8v-127q-29 2 -127 2q-101 0 -101 -144v-125h228v-127h-228v-913h-180v913h-192z" />
<glyph unicode="g" horiz-adv-x="1228" d="M96 528q0 26 0.5 45t4.5 63t11.5 78.5t23.5 83t37.5 85t56.5 75.5t78 64.5t104.5 42t134.5 16.5q260 0 360 -184h6v143h168v-1013q0 -82 -21 -149t-53.5 -109.5t-78.5 -74.5t-88 -48.5t-90.5 -26.5t-78 -12t-57.5 -2h-40t-48 2.5t-58 6.5t-59 13.5t-61.5 23t-56 35 t-53 48.5t-40.5 65t-30 84h172q41 -149 274 -149q58 0 105 15.5t76 38.5t50.5 56.5t32 62t16 63t6.5 51.5t1 36v113q-72 -117 -146.5 -164t-189.5 -47q-95 0 -177.5 33.5t-149 100t-104.5 178.5t-38 257zM287 535q0 -86 13.5 -156.5t34.5 -116.5t51.5 -80t58.5 -52 t61.5 -28.5t55 -13t44.5 -2.5q17 0 38 3.5t51.5 15t59 30.5t58 53.5t51 79.5t35.5 113.5t14 150.5q0 200 -83 311t-240 111q-62 0 -112 -19.5t-81 -48t-53.5 -72t-33 -78.5t-16.5 -82t-6.5 -68.5t-0.5 -50.5z" />
<glyph unicode="h" horiz-adv-x="1171" d="M147 0v1434h181v-539q71 97 157.5 141.5t198.5 44.5q56 0 103 -11t80 -27.5t59 -44t42 -51t28 -58.5t17 -57t8 -57t3 -46.5v-36.5v-692h-180v637v9v38.5t-1.5 40t-4.5 42.5t-8 40t-13 39t-19.5 34t-28 30.5t-36.5 22.5t-47 16t-59 5q-35 0 -69 -6.5t-78 -31t-75.5 -64 t-54 -113.5t-22.5 -172v-567h-181z" />
<glyph unicode="i" horiz-adv-x="466" d="M143 0v1040h181v-1040h-181zM143 1245v189h181v-189h-181z" />
<glyph unicode="j" horiz-adv-x="473" d="M-33 -252q51 9 77.5 14t50.5 16t32.5 17.5t15 28t7 37t0.5 55.5v10v1114h180v-1136q0 -148 -54 -219.5t-192 -71.5q-17 0 -117 8v127zM150 1245v189h180v-189h-180z" />
<glyph unicode="k" horiz-adv-x="1071" d="M147 0v1434h181v-889l495 495h215l-409 -401l450 -639h-209l-366 528l-176 -174v-354h-181z" />
<glyph unicode="l" horiz-adv-x="475" d="M147 0v1434h181v-1434h-181z" />
<glyph unicode="m" horiz-adv-x="1785" d="M147 0v1040h181v-141l-2 -12q40 88 130.5 141t190.5 53q125 0 199.5 -65t97.5 -158q16 35 43 69.5t69.5 71t107.5 59.5t141 23q58 0 106 -12.5t81 -35.5t58.5 -50.5t41 -63.5t25.5 -67t14 -68t5.5 -61t1.5 -51v-672h-180v659q0 295 -201 295q-40 0 -76 -8.5t-73 -32 t-64 -59.5t-44 -96t-17 -137v-621h-180v657q0 297 -201 297q-116 0 -195 -91.5t-79 -241.5v-621h-181z" />
<glyph unicode="n" horiz-adv-x="1173" d="M147 0v1040h181v-145q58 84 148.5 135t207.5 51q342 0 342 -389v-692h-180v637v40.5t-2 43.5t-5.5 48.5t-10.5 45t-17.5 44.5t-27.5 37t-38.5 31.5t-51.5 18.5t-66 8q-35 0 -69 -6.5t-78 -31t-75.5 -64t-54 -113.5t-22.5 -172v-567h-181z" />
<glyph unicode="o" horiz-adv-x="1200" d="M88 520q0 86 16.5 164.5t55 152t96 127t146 85.5t198.5 32t198.5 -32t146 -85.5t96 -127t55 -152t16.5 -164.5t-16.5 -164.5t-55 -152t-96 -127t-146 -85.5t-198.5 -32t-198.5 32t-146 85.5t-96 127t-55 152t-16.5 164.5zM279 522q0 -86 14 -155.5t35 -114t52.5 -77.5 t59.5 -49.5t62 -26t54.5 -11.5t43.5 -2t43.5 2t55 11.5t62.5 26t59 49.5t52.5 77.5t35.5 114t14 155.5t-14 155.5t-35.5 114t-52.5 77.5t-59 49.5t-62.5 26t-55 11.5t-43.5 2t-43.5 -2t-54.5 -11.5t-62 -26t-59.5 -49.5t-52.5 -77.5t-35 -114t-14 -155.5z" />
<glyph unicode="p" horiz-adv-x="1222" d="M147 -379v1419h168v-143h7q121 184 344 184q98 0 181.5 -33.5t148.5 -100t102 -176t37 -251.5q0 -117 -25.5 -212.5t-69.5 -159.5t-104 -107t-126.5 -62.5t-139.5 -19.5q-26 0 -60 5.5t-89.5 22t-108 59t-84.5 104.5v-529h-181zM315 516q0 -93 20.5 -168t53 -123t76 -80 t86.5 -45.5t86 -13.5q46 0 88 13t82.5 44.5t70.5 80t48 124.5t18 172q0 203 -82.5 318.5t-234.5 115.5q-34 0 -68.5 -7t-80.5 -34.5t-80 -72t-58.5 -128.5t-24.5 -196z" />
<glyph unicode="q" horiz-adv-x="1224" d="M88 520q0 92 18.5 174.5t56.5 153.5t93.5 122.5t133.5 81t171 29.5q224 0 342 -184h6v143h168v-1419h-180v526q-101 -188 -342 -188q-82 0 -150 21t-115.5 55t-84 82t-58 98t-35.5 107t-19 104t-5 94zM279 520q0 -119 27 -207t73 -135.5t98.5 -69.5t112.5 -22 q55 0 108 22.5t102 70t79 135t30 202.5q0 100 -19 178t-49 126t-71.5 79t-83 43t-86.5 12q-66 0 -122 -24t-101.5 -73.5t-71.5 -135.5t-26 -201z" />
<glyph unicode="r" horiz-adv-x="755" d="M147 0v1040h181v-200h4q35 110 131.5 172t212.5 67l53 2v-127q-190 -8 -288.5 -91.5t-110.5 -272.5q-2 -18 -2 -55v-56v-479h-181z" />
<glyph unicode="s" horiz-adv-x="1036" d="M74 309h180q2 -60 26.5 -104.5t65.5 -69.5t88.5 -37t102.5 -12q50 0 89.5 9t64 22t42 33.5t25.5 36.5t12.5 39t5 32t0.5 25q0 30 -6 49.5t-27 42.5t-67 42.5t-119 37.5l-111 24q-63 14 -102 25.5t-87 35t-74.5 53t-45 77.5t-18.5 112q0 83 34.5 143.5t93.5 93t125 47.5 t142 15q73 0 134 -11.5t103 -30t74.5 -45.5t52 -54t32.5 -60t18.5 -58.5t7.5 -53.5h-172q-2 22 -7.5 42.5t-21.5 48t-41 47.5t-70 34t-104 14q-14 0 -25 -1t-40.5 -4.5t-51.5 -14t-46.5 -27t-38 -47t-13.5 -69.5q0 -24 4 -44t15.5 -36t21 -28t30.5 -22.5t33.5 -16.5t42 -14 t43 -11t48.5 -10.5l49 -10.5q45 -10 69.5 -16t62.5 -17t59.5 -19.5t50.5 -23t45 -29t34.5 -35t27.5 -44t15.5 -54t6.5 -65.5q0 -67 -22 -121.5t-54.5 -88.5t-78 -59.5t-85 -37.5t-84 -19.5t-65.5 -8.5t-39 -1q-221 0 -338.5 99t-122.5 251z" />
<glyph unicode="t" horiz-adv-x="655" d="M27 913v127h186v312h180v-312h221v-127h-221v-661q0 -73 10 -96q19 -47 99 -47q49 0 112 18v-127q-93 -41 -188 -41q-35 0 -64 5.5t-49.5 13.5t-37 23.5t-27 28t-17.5 34.5t-10.5 35.5t-5.5 39.5t-2 38v38v698h-186z" />
<glyph unicode="u" horiz-adv-x="1173" d="M147 350v690h181v-637q0 -95 15.5 -159.5t46.5 -98t68 -46.5t89 -13q62 0 111.5 18.5t80.5 44.5t53 67t32 72.5t15.5 76.5t6 62.5t0.5 45.5v567h180v-1040h-180v147h-4q-29 -51 -73.5 -88.5t-84.5 -56t-85.5 -29t-68 -12.5t-41.5 -2q-342 0 -342 391z" />
<glyph unicode="v" horiz-adv-x="962" d="M-8 1040h194l295 -860l295 860h195l-385 -1040h-209z" />
<glyph unicode="w" horiz-adv-x="1474" d="M-8 1040h186l254 -833l217 833h176l217 -833l254 833h187l-336 -1040h-193l-217 834l-217 -834h-192z" />
<glyph unicode="x" horiz-adv-x="991" d="M0 0l393 543l-364 497h200l267 -385l266 385h201l-365 -497l393 -543h-200l-295 428l-295 -428h-201z" />
<glyph unicode="y" horiz-adv-x="1019" d="M14 1040h215l334 -841l277 841h180l-414 -1163l-6 -18q-14 -42 -23 -65.5t-31.5 -63t-47.5 -61t-68 -39t-96 -17.5q-99 0 -148 10v133q69 -10 90 -10q36 0 62.5 12t44.5 38t28.5 50t24.5 64q3 8 4 12l25 78z" />
<glyph unicode="z" horiz-adv-x="958" d="M53 0v127l623 786h-580v127h778v-127l-604 -786h635v-127h-852z" />
<glyph unicode="{" horiz-adv-x="749" d="M154 459v135q23 2 44.5 9.5t47.5 26.5t45 48t32 78.5t13 113.5q0 37 -4 110.5t-4 109.5q0 326 319 344v-109q-143 -30 -143 -195q0 -52 6 -108q6 -58 6 -117q0 -141 -56.5 -230.5t-180.5 -146.5v-4q124 -57 180.5 -146.5t56.5 -230.5q0 -57 -6 -116q-6 -55 -6 -109 q0 -164 143 -194v-109q-319 18 -319 344q0 36 4 109t4 110q0 249 -182 277z" />
<glyph unicode="|" horiz-adv-x="978" d="M426 -459v2157h127v-2157h-127z" />
<glyph unicode="}" horiz-adv-x="749" d="M102 -272q144 30 144 194q0 54 -6 109q-7 68 -7 116q0 141 56.5 230.5t181.5 146.5v4q-125 57 -181.5 146.5t-56.5 230.5q0 49 7 117q6 56 6 108q0 165 -144 195v109q320 -18 320 -344q0 -36 -4 -109.5t-4 -110.5q0 -64 13 -113.5t32 -78.5t45 -48t47.5 -26.5t44.5 -9.5 v-135q-182 -28 -182 -277q0 -37 4 -110t4 -109q0 -326 -320 -344v109z" />
<glyph unicode="~" horiz-adv-x="1228" d="M102 623q17 45 39.5 86t55.5 83t79.5 67.5t98.5 25.5q95 0 178 -47l211 -113q2 -2 15.5 -8t39.5 -12.5t51 -6.5q18 0 38 6.5t45 23t50 51.5t44 85l79 -33q-16 -45 -38.5 -86.5t-55.5 -83.5t-79.5 -67t-98.5 -25q-95 0 -178 47l-211 113q-60 27 -109 27q-57 0 -103 -47.5 t-71 -118.5z" />
<glyph unicode="&#xa2;" d="M121 528q0 251 122 399.5t330 153.5v136h109v-136q96 -4 179.5 -48t141.5 -127t70 -191h-172q-14 90 -69 159t-150 80v-868q71 9 123 55t76 105t28 125h172q-8 -79 -37.5 -151.5t-78 -130.5t-122 -93.5t-161.5 -36.5v-147h-109v147q-97 1 -175.5 36t-129 91t-84.5 131 t-48.5 152t-14.5 159zM311 528q0 -80 14.5 -151.5t44.5 -133.5t82 -103.5t121 -53.5v868q-73 -6 -126 -47t-81.5 -104t-41.5 -131.5t-13 -143.5z" />
<glyph unicode="&#xa3;" d="M84 623v125h149q-46 101 -61.5 153.5t-15.5 132.5q0 72 16 133t40 104t61.5 77.5t71.5 55.5t79.5 36t75.5 22t69.5 10.5t52 4t31.5 0.5q38 0 73 -3.5t82.5 -15.5t86.5 -32t79.5 -57.5t68 -87.5t45.5 -125.5t18 -168.5h-182v66q0 127 -70.5 208.5t-212.5 81.5 q-137 0 -217 -90t-80 -231q0 -31 3.5 -56.5t14.5 -54t19 -45.5t28 -56.5t31 -61.5h289v-125h-240q19 -58 19 -127q0 -82 -27 -153t-106 -142l4 -13q55 23 149 23q35 0 66.5 -6.5t47.5 -12.5t54 -22q114 -47 168 -47q97 0 174 94l90 -123q-66 -66 -127.5 -101.5t-142.5 -35.5 q-98 0 -250 61q-7 3 -33 14.5t-39 16t-40.5 9.5t-59.5 5q-121 0 -221 -77l-92 133q207 142 207 342q0 53 -33 162h-213z" />
<glyph unicode="&#xa5;" d="M-35 1434h230l399 -664l397 664h230l-531 -836v-80h215v-94h-215v-66h215v-94h-215v-264h-192v264h-215v94h215v66h-215v94h215v80z" />
<glyph unicode="&#xa7;" horiz-adv-x="1185" d="M131 643q0 136 67.5 218.5t176.5 107.5q-59 41 -84 97t-25 142q0 116 86 196.5t244 80.5q24 0 44.5 -1.5t57 -8.5t65.5 -20t62 -38.5t54.5 -61t35 -90.5t11.5 -124h-152q-2 67 -19 111.5t-45.5 64t-55 26.5t-60.5 7q-75 0 -114.5 -40t-39.5 -106q0 -32 8.5 -58.5t27 -48 t37 -37t51.5 -31.5t56.5 -26t65 -26.5t64.5 -26.5q154 -65 229.5 -155t75.5 -234q0 -247 -250 -325q125 -41 125 -230q0 -61 -16.5 -109.5t-41 -79.5t-61 -53.5t-67.5 -33.5t-70 -17t-59.5 -7t-43.5 -1q-66 0 -120 15.5t-89 39t-61.5 58t-40 66.5t-21.5 70t-10 63t-2 51 l152 -2q-3 -53 13.5 -102.5t62.5 -86.5t114 -37q56 0 95 13.5t58.5 38t27.5 49.5t8 55q0 26 -6.5 48.5t-15 39t-28 33.5t-33 27t-44 24.5t-46.5 21.5t-55 23t-57 23q-53 22 -92.5 41.5t-89.5 55.5t-82.5 76t-55 101t-22.5 133zM303 653q0 -45 10 -81.5t31 -65.5t46.5 -51.5 t65.5 -44.5t77.5 -39.5t92.5 -40.5q12 -5 18.5 -7.5t16.5 -7t19 -8.5q34 10 66.5 28t64 48.5t51 78.5t19.5 107q0 107 -79 175t-302 149q-102 -29 -149.5 -93.5t-47.5 -146.5z" />
<glyph unicode="&#xa8;" horiz-adv-x="790" d="M102 1245v189h181v-189h-181zM508 1245v189h180v-189h-180z" />
<glyph unicode="&#xa9;" horiz-adv-x="1650" d="M109 717q0 195 94.5 359.5t259.5 261t362 96.5t362 -96.5t260 -261t95 -359.5t-95 -359.5t-260 -261t-362 -96.5t-362 96.5t-259.5 261t-94.5 359.5zM244 717q0 -167 76.5 -306.5t210.5 -220.5t294 -81t294 81t211 220.5t77 306.5t-77 306.5t-211 220.5t-294 81t-294 -81 t-210.5 -220.5t-76.5 -306.5zM494 719q0 89 21.5 159t55 111.5t79 68t88 36.5t87.5 10q36 0 73 -7t76 -24t68.5 -43t48.5 -68t19 -94h-127q-18 133 -158 133q-50 0 -86.5 -21t-56.5 -50t-31.5 -70.5t-14.5 -73.5t-3 -67q0 -27 4 -57t17.5 -68.5t34.5 -68t59.5 -50 t87.5 -20.5q36 0 64 11.5t44 28t27 39t15.5 39.5t6.5 35h135q-14 -78 -44 -131.5t-72.5 -79t-84 -35.5t-93.5 -10q-80 0 -142.5 25.5t-99 63.5t-59.5 89.5t-31 97t-8 91.5z" />
<glyph unicode="&#xab;" horiz-adv-x="946" d="M127 473v168l305 268v-168l-217 -184l217 -184v-168zM487 473v168l306 268v-168l-218 -184l218 -184v-168z" />
<glyph unicode="&#xad;" horiz-adv-x="864" d="M162 461v174h540v-174h-540z" />
<glyph unicode="&#xae;" horiz-adv-x="1650" d="M109 717q0 195 94.5 359.5t259.5 261t362 96.5t362 -96.5t260 -261t95 -359.5t-95 -359.5t-260 -261t-362 -96.5t-362 96.5t-259.5 261t-94.5 359.5zM244 717q0 -167 76.5 -306.5t210.5 -220.5t294 -81t294 81t211 220.5t77 306.5t-77 306.5t-211 220.5t-294 81t-294 -81 t-210.5 -220.5t-76.5 -306.5zM563 365v716h318q27 0 53.5 -3.5t61 -16t59.5 -34t43 -61t18 -92.5q0 -112 -121 -163v-4q22 -4 39 -12.5t27.5 -24.5t17 -28t10.5 -36t5.5 -34.5t3.5 -36.5q1 -24 2.5 -55.5l2 -42t3 -26.5t7 -25t13.5 -21h-137q-7 7 -11 14t-6.5 13.5 t-3.5 20.5t-1.5 26t-1.5 39t-2 50q0 31 -4 50t-18.5 41t-48 32.5t-87.5 10.5h-109v-297h-133zM696 760h154q131 0 131 114q0 62 -36.5 85.5t-108.5 23.5h-140v-223z" />
<glyph unicode="&#xb0;" horiz-adv-x="544" d="M76 1239q0 82 57 139.5t139 57.5t139.5 -57.5t57.5 -139.5t-57.5 -139.5t-139.5 -57.5t-139 57.5t-57 139.5zM170 1239q0 -41 30.5 -71.5t71.5 -30.5t72 30.5t31 71.5t-31 71.5t-72 30.5t-71.5 -30.5t-30.5 -71.5z" />
<glyph unicode="&#xb4;" horiz-adv-x="638" d="M193 1163l143 271h217l-197 -271h-163z" />
<glyph unicode="&#xb6;" horiz-adv-x="1005" d="M82 1096q0 141 99 239.5t239 98.5h127v-1813h-127v1137q-143 5 -240.5 99.5t-97.5 238.5zM741 -379v1813h127v-1813h-127z" />
<glyph unicode="&#xb7;" horiz-adv-x="512" d="M156 436v226h202v-226h-202z" />
<glyph unicode="&#xb8;" horiz-adv-x="610" d="M88 -475l35 115q49 -17 127 -17q66 0 97.5 21t31.5 55q0 41 -35 58.5t-86 17.5h-55h-35l31 106h65q273 0 273 -200q0 -30 -11 -57t-37.5 -55t-81.5 -44.5t-133 -16.5q-69 0 -186 17z" />
<glyph unicode="&#xbb;" horiz-adv-x="946" d="M154 205v168l217 184l-217 184v168l305 -268v-168zM514 205v168l217 184l-217 184v168l305 -268v-168z" />
<glyph unicode="&#x192;" d="M70 -379l28 133q10 -2 29 -2q86 0 125 36.5t59 133.5l209 991h-190l26 127h191l31 142q55 252 331 252q65 0 127 -15l-24 -123q-57 11 -127 11q-103 0 -129 -142l-27 -125h223l-26 -127h-224l-210 -1003q-7 -34 -12 -54t-17.5 -55.5t-26 -57.5t-37.5 -49.5t-52.5 -43 t-71 -26.5t-93.5 -11q-64 0 -112 8z" />
<glyph unicode="&#x2c6;" horiz-adv-x="962" d="M102 1163l244 271h270l244 -271h-180l-199 203l-198 -203h-181z" />
<glyph unicode="&#x2da;" horiz-adv-x="581" d="M102 1352q0 79 54.5 133.5t134.5 54.5q79 0 133.5 -54t54.5 -134t-54.5 -134.5t-133.5 -54.5t-134 54.5t-55 134.5zM184 1352q0 -44 31.5 -75.5t75.5 -31.5t75 31.5t31 75.5t-31 75t-75 31t-75.5 -31t-31.5 -75z" />
<glyph unicode="&#x2dc;" horiz-adv-x="962" d="M102 1245q15 86 75 145.5t153 59.5q42 0 75 -10t76 -35q32 -19 46 -27t46.5 -19t59.5 -11q38 0 67.5 24.5t40.5 61.5h119q-7 -36 -21 -69t-39.5 -66.5t-68.5 -53.5t-98 -20q-68 0 -168 53q-3 1 -8 4q-86 42 -129 45q-39 0 -70 -19.5t-35 -62.5h-121z" />
<glyph unicode="&#x401;" horiz-adv-x="1255" d="M174 0v1434h1024v-162h-831v-451h751v-162h-751v-497h854v-162h-1047zM383 1581v162h192v-162h-192zM825 1581v162h193v-162h-193z" />
<glyph unicode="&#x402;" horiz-adv-x="1548" d="M27 1272v162h1079v-162h-465v-461q168 14 313 14q125 0 218.5 -27.5t146 -68.5t85 -99.5t42.5 -110.5t10 -111q0 -203 -114.5 -319t-317.5 -116q-83 0 -162 27v162q91 -27 146 -27q32 0 61.5 4.5t67 20.5t64 42.5t45 76t18.5 114.5q0 60 -14 105t-50 84.5t-107 60.5 t-175 21q-130 0 -277 -15v-649h-192v1272h-422z" />
<glyph unicode="&#x403;" horiz-adv-x="1114" d="M174 0v1434h913v-162h-720v-1272h-193zM420 1556l151 287h230l-209 -287h-172z" />
<glyph unicode="&#x404;" horiz-adv-x="1482" d="M92 733q0 70 8 138t29 143.5t53.5 140.5t86 125.5t121.5 103t164 68t210 25.5q125 0 226 -30t164.5 -77t109 -110t66 -122.5t28.5 -121.5h-205q-8 41 -22 78.5t-44.5 79.5t-71.5 72t-107 49.5t-148 19.5q-116 0 -205.5 -40.5t-144 -110.5t-83 -157t-30.5 -188h707v-162 h-707q3 -105 24 -189.5t51 -139.5t73.5 -95.5t83.5 -62t90 -33.5t83.5 -15t73.5 -3q84 0 151.5 23.5t111 60t75 88.5t47.5 101t25 106h205q-6 -50 -18 -97.5t-35 -102.5t-54 -102.5t-79.5 -92.5t-108 -76.5t-142 -50.5t-178.5 -19q-124 0 -226.5 28.5t-172 74.5t-122.5 112 t-83 133.5t-49 147.5t-25 145.5t-6 134.5z" />
<glyph unicode="&#x405;" horiz-adv-x="1343" d="M92 455h193q-5 -146 106 -241t303 -95q178 0 265.5 76.5t87.5 189.5q0 51 -18 91t-44.5 65t-68.5 45.5t-76 30.5t-82 20q-31 7 -91 19q-82 17 -122 26.5t-107 29t-101 37.5t-78.5 48.5t-65.5 66.5t-36.5 87t-15.5 114q0 198 147 305t396 107q128 0 229 -33.5t163.5 -92 t97 -132t40.5 -158.5h-192q-6 49 -23.5 89t-40.5 65.5t-54.5 45t-60 29.5t-62.5 16t-56.5 7.5t-46.5 1.5q-150 0 -241 -65t-91 -175q0 -49 19 -86t48 -59.5t77.5 -40.5t91 -28t106.5 -22q11 -2 17 -3q200 -38 288 -73q192 -77 240 -239q18 -62 18 -135q0 -88 -26 -158.5 t-64.5 -114.5t-96.5 -76.5t-106 -47.5t-110.5 -24t-93.5 -10t-70 -1q-51 0 -96.5 3.5t-106 16t-110 33.5t-101 59t-87.5 89t-61 127t-30 170z" />
<glyph unicode="&#x406;" horiz-adv-x="540" d="M174 0v1434h193v-1434h-193z" />
<glyph unicode="&#x407;" horiz-adv-x="622" d="M55 1581v162h193v-162h-193zM215 0v1434h193v-1434h-193zM375 1581v162h192v-162h-192z" />
<glyph unicode="&#x408;" horiz-adv-x="1064" d="M47 401v74h193q0 -181 54.5 -268.5t192.5 -87.5q60 0 103.5 18t69 47.5t40.5 77t20 97.5t5 118v957h193v-938q0 -284 -100.5 -411.5t-332.5 -127.5q-37 0 -70 3t-79.5 13.5t-84 28.5t-77 51.5t-66.5 79t-44 114.5t-17 154z" />
<glyph unicode="&#x409;" horiz-adv-x="2207" d="M29 0v168q16 -4 24 -4h27q287 0 287 653v617h897v-584h411q25 0 51.5 -2t75.5 -11.5t91 -25.5t89.5 -48.5t81.5 -76t56 -112.5t22 -154q0 -30 -3.5 -60.5t-15 -73.5t-31 -80.5t-55 -76.5t-83 -66.5t-119.5 -45t-160 -17.5h-604v1272h-514v-496q0 -138 -13 -250.5 t-45.5 -213.5t-84 -169.5t-131.5 -108.5t-185 -40q-34 0 -69 6zM1264 162h387q15 0 31.5 1t46.5 7t56.5 16t56.5 30t51 46.5t35 69t14 94.5q0 123 -76.5 192.5t-239.5 69.5h-362v-526z" />
<glyph unicode="&#x40a;" horiz-adv-x="2217" d="M174 0v1434h193v-584h720v584h193v-584h412q22 0 47 -2t72.5 -11.5t89.5 -25.5t90 -48.5t82 -76t56.5 -112.5t22.5 -154q0 -60 -11.5 -115t-43.5 -112t-81.5 -98.5t-133 -68t-190.5 -26.5h-605v688h-720v-688h-193zM1280 162h389q14 0 30 1t45.5 7t56 16t56 30t50.5 46.5 t35 69t14 94.5q0 262 -311 262h-365v-526z" />
<glyph unicode="&#x40b;" horiz-adv-x="1638" d="M27 1272v162h1079v-162h-465v-461q177 14 313 14q124 0 210 -13.5t143 -40t89 -73t45 -104.5t13 -143v-451h-192v420q0 47 -7 83t-19.5 62t-35 44t-47.5 28.5t-64 16.5t-77 8t-94 2q-57 0 -277 -15v-649h-192v1272h-422z" />
<glyph unicode="&#x40c;" horiz-adv-x="1284" d="M174 0v1434h193v-654l645 654h235l-682 -664l727 -770h-252l-673 748v-748h-193zM504 1556l151 287h230l-209 -287h-172z" />
<glyph unicode="&#x40e;" horiz-adv-x="1204" d="M18 1434h236l412 -863l344 863h202l-485 -1178q-24 -57 -51 -101t-51 -73t-54 -49t-52.5 -30t-54.5 -15.5t-51 -6.5t-51 -1q-85 0 -159 20v168q68 -23 135 -23q29 0 49 3t47 15t47.5 33.5t42.5 62t39 97.5zM227 1782h160q1 -78 61 -125t154 -47q60 0 104 18t66 47 t32 54.5t13 52.5h160q-8 -39 -21 -74.5t-41.5 -76t-67.5 -69t-102.5 -48t-142.5 -19.5t-142.5 19.5t-102.5 48t-67.5 69t-41.5 76t-21 74.5z" />
<glyph unicode="&#x40f;" horiz-adv-x="1482" d="M184 0v1434h193v-1272h729v1272h192v-1434h-464v-387h-185v387h-465z" />
<glyph unicode="&#x410;" horiz-adv-x="1273" d="M-8 0l543 1434h204l543 -1434h-207l-135 371h-606l-135 -371h-207zM387 532h500l-250 707z" />
<glyph unicode="&#x411;" horiz-adv-x="1368" d="M174 0v1434h1018v-162h-825v-430h440q38 0 72 -2t85 -12t92 -26.5t86 -49t75 -76t49.5 -110.5t19.5 -150q0 -62 -12 -117t-45.5 -111t-85 -96.5t-137.5 -66t-197 -25.5h-635zM367 162h401q322 0 322 252q0 266 -322 266h-401v-518z" />
<glyph unicode="&#x412;" horiz-adv-x="1411" d="M174 0v1434h629q100 0 177.5 -22t124 -57.5t76 -85t40 -97.5t10.5 -103q0 -115 -69.5 -203.5t-170.5 -103.5v-6q40 -7 77.5 -20t79.5 -41t72.5 -65.5t51 -97.5t20.5 -133q0 -399 -512 -399h-606zM367 162h399q48 0 86.5 4t86.5 19t80 41t54.5 74.5t22.5 115.5 q0 132 -85.5 190t-244.5 58h-399v-502zM367 825h387q148 0 214 62.5t66 161.5q0 29 -5 55.5t-22.5 58.5t-46 55t-80 38.5t-120.5 15.5h-393v-447z" />
<glyph unicode="&#x413;" horiz-adv-x="1114" d="M174 0v1434h913v-162h-720v-1272h-193z" />
<glyph unicode="&#x414;" horiz-adv-x="1511" d="M0 162h129q272 339 272 977v295h877v-1272h207l-19 -486h-168v324h-1114v-324h-168zM358 162h727v1110h-491v-178q0 -299 -52 -518t-184 -414z" />
<glyph unicode="&#x415;" horiz-adv-x="1253" d="M174 0v1434h1022v-162h-829v-451h751v-162h-751v-497h852v-162h-1045z" />
<glyph unicode="&#x416;" horiz-adv-x="1859" d="M-8 0l661 768l-633 666h230l584 -631v631h192v-631l584 631h229l-633 -666l662 -768h-234l-608 715v-715h-192v715l-609 -715h-233z" />
<glyph unicode="&#x417;" horiz-adv-x="1366" d="M92 440h193q3 -47 14 -87.5t39.5 -85t71 -76t115.5 -52t167 -20.5q101 0 174.5 26t112 69.5t55.5 90t17 98.5q0 40 -7.5 75t-29 72.5t-56.5 63.5t-95.5 43t-139.5 17h-188v162h170q20 0 37 1t48.5 5.5t56 13t53.5 25.5t48 40t32 60t13 82q0 51 -15.5 92t-38.5 66.5 t-57 44.5t-63 28t-64.5 14t-53 6t-37.5 1t-37.5 -1t-55.5 -6.5t-68.5 -15.5t-67 -30.5t-62 -49t-44 -74t-20.5 -102.5h-192q5 86 31 155.5t62 115t87.5 78.5t98 50t104.5 27t96 12.5t82 2.5q239 0 375.5 -101.5t136.5 -300.5q0 -118 -66.5 -204.5t-177.5 -106.5v-4 q301 -69 301 -375q0 -62 -14 -118t-52 -114t-96.5 -100.5t-156 -69t-223.5 -26.5q-143 0 -252 29.5t-174.5 75.5t-108 112t-59 129.5t-19.5 136.5z" />
<glyph unicode="&#x418;" horiz-adv-x="1497" d="M174 0v1434h193v-1153l763 1153h193v-1434h-193v1161l-763 -1161h-193z" />
<glyph unicode="&#x419;" horiz-adv-x="1497" d="M174 0v1434h193v-1153l763 1153h193v-1434h-193v1161l-763 -1161h-193zM397 1757h154q5 -68 54.5 -115t144.5 -47t144 47t54 115h154q-57 -270 -352 -270q-296 0 -353 270z" />
<glyph unicode="&#x41a;" horiz-adv-x="1284" d="M174 0v1434h193v-654l645 654h235l-682 -664l727 -770h-252l-673 748v-748h-193z" />
<glyph unicode="&#x41b;" horiz-adv-x="1437" d="M27 0v168q58 -10 106.5 2.5t92.5 56t74 117.5t47.5 194t17.5 279v617h899v-1434h-193v1272h-514v-496q0 -122 -11 -225.5t-31.5 -182t-49.5 -142t-65.5 -105.5t-79 -72t-89.5 -41.5t-98.5 -15t-105.5 7.5z" />
<glyph unicode="&#x41c;" horiz-adv-x="1822" d="M174 0v1434h289l448 -1180l449 1180h289v-1434h-193v1149l4 55h-6l-465 -1204h-155l-467 1204h-5l5 -55v-1149h-193z" />
<glyph unicode="&#x41d;" horiz-adv-x="1454" d="M174 0v1434h193v-598h720v598h193v-1434h-193v674h-720v-674h-193z" />
<glyph unicode="&#x41e;" horiz-adv-x="1552" d="M92 717q0 185 50.5 330t142 238.5t216 142.5t275.5 49q100 0 193 -22.5t184 -77.5t158 -139.5t108 -218t41 -302.5q0 -121 -21 -223.5t-54.5 -175t-82.5 -131.5t-97.5 -96t-107.5 -64t-104 -40t-95.5 -20.5t-74 -8.5t-47.5 -1q-25 0 -49 1t-75 8.5t-95.5 20.5t-103.5 40 t-107 64t-97 96t-82 131.5t-54 175t-21 223.5zM297 717q0 -54 5 -106t18.5 -113t35.5 -113.5t59.5 -102.5t86 -85t119 -56.5t155.5 -21.5q30 0 58 2.5t79 15.5t93.5 35t90.5 67t81 106t55 157t22 215q0 129 -29 236.5t-86.5 189t-150 127t-213.5 45.5q-90 0 -164 -25.5 t-122.5 -65.5t-85.5 -96t-56.5 -109.5t-31.5 -115t-15.5 -103.5t-3.5 -83z" />
<glyph unicode="&#x41f;" horiz-adv-x="1454" d="M174 0v1434h1106v-1434h-193v1272h-720v-1272h-193z" />
<glyph unicode="&#x420;" horiz-adv-x="1308" d="M174 0v1434h584q485 0 485 -412q0 -451 -504 -451h-372v-571h-193zM367 733h352q169 0 248.5 71t79.5 214q0 132 -80.5 193t-247.5 61h-352v-539z" />
<glyph unicode="&#x421;" horiz-adv-x="1458" d="M92 692q0 156 32 282.5t80 206.5t117 139.5t129 88t132 45.5t110 20t76 3q95 0 175.5 -15.5t138.5 -42t104.5 -65t76.5 -80t51 -91.5t32 -96t16 -96h-193q-4 38 -14 74.5t-37.5 84t-69 82t-114.5 59t-166 24.5q-104 0 -186 -34.5t-134.5 -92t-87 -138t-49 -166.5 t-14.5 -184q0 -167 57.5 -298t168.5 -207t259 -76q171 0 284.5 100.5t121.5 255.5h192q-6 -48 -17.5 -93.5t-34 -98.5t-53 -98t-78 -88t-106 -73.5t-140 -48.5t-177.5 -18q-319 0 -500.5 195.5t-181.5 539.5z" />
<glyph unicode="&#x422;" horiz-adv-x="1177" d="M27 1272v162h1124v-162h-465v-1272h-192v1272h-467z" />
<glyph unicode="&#x423;" horiz-adv-x="1204" d="M18 1434h236l412 -863l344 863h202l-485 -1178q-24 -57 -51 -101t-51 -73t-54 -49t-52.5 -30t-54.5 -15.5t-51 -6.5t-51 -1q-85 0 -159 20v168q68 -23 135 -23q29 0 49 3t47 15t47.5 33.5t42.5 62t39 97.5z" />
<glyph unicode="&#x424;" horiz-adv-x="1822" d="M86 731q0 34 3 68.5t18 93.5t39.5 110t74 107.5t115.5 96t169 65.5t230 26h80v218h193v-218h79q58 0 114.5 -6t122.5 -22.5t123 -43t111.5 -71t93 -101.5t62 -140t23.5 -183q0 -105 -27 -192t-69.5 -144.5t-102.5 -101.5t-118.5 -68t-124.5 -39t-114 -19.5t-94 -4.5h-79 v-215h-193v215h-80q-37 0 -75.5 2.5t-106 15t-126 34t-124 65t-111 101t-76 148.5t-30.5 203zM291 731q0 -25 0.5 -43.5t5.5 -53t13 -61t24.5 -61.5t39.5 -61t59.5 -53.5t81.5 -45t108.5 -28.5t138.5 -11h53v834h-53q-75 0 -138.5 -11.5t-108.5 -29t-81.5 -45.5t-59.5 -54.5 t-39.5 -61.5t-24.5 -61.5t-13 -60t-5.5 -51.5t-0.5 -41zM1008 313h55q469 0 469 418q0 84 -21 151.5t-51.5 110.5t-77.5 74t-86.5 46t-91 23t-79 9.5t-62.5 1.5h-55v-834z" />
<glyph unicode="&#x425;" horiz-adv-x="1167" d="M-41 0l502 733l-475 701h239l359 -564l358 564h240l-475 -701l501 -733h-247l-377 596l-377 -596h-248z" />
<glyph unicode="&#x426;" horiz-adv-x="1513" d="M174 0v1434h193v-1272h727v1272h192v-1272h201l-14 -486h-168v324h-1131z" />
<glyph unicode="&#x427;" horiz-adv-x="1302" d="M119 983v451h192v-420q0 -66 15 -110.5t39.5 -71t71 -40.5t95 -18t125.5 -4q120 0 279 14v650h192v-1434h-192v623q-190 -15 -315 -15q-111 0 -188 9.5t-140 34t-99.5 67t-55.5 107.5t-19 157z" />
<glyph unicode="&#x428;" horiz-adv-x="2084" d="M174 0v1434h193v-1272h579v1272h193v-1272h579v1272h193v-1434h-1737z" />
<glyph unicode="&#x429;" horiz-adv-x="2150" d="M174 0v1434h193v-1272h579v1272h193v-1272h579v1272h193v-1272h213l-19 -486h-168v324h-1763z" />
<glyph unicode="&#x42a;" horiz-adv-x="1470" d="M27 1272v162h503v-584h412q59 0 115 -9t121.5 -37t113.5 -73t80.5 -125t32.5 -186q0 -77 -18 -141t-47 -106.5t-70.5 -75t-82 -50.5t-88.5 -29t-84 -14.5t-73 -3.5h-604v1272h-311zM530 162h390q14 0 30 1t45.5 7t56 16t56.5 30t51 46.5t35 69t14 94.5q0 125 -73.5 193.5 t-241.5 68.5h-363v-526z" />
<glyph unicode="&#x42b;" horiz-adv-x="1757" d="M174 0v1434h193v-584h413q219 0 340 -113t121 -317q0 -107 -34 -187.5t-83 -123.5t-116.5 -69t-119.5 -33t-108 -7h-606zM367 162h387q36 0 70.5 5.5t76 23t72 45t51 77t20.5 113.5q0 43 -9 78t-21.5 60.5t-36 46t-43.5 33t-52.5 21.5t-54 13.5t-58 6.5t-55.5 2.5 t-53 0.5h-10h-284v-526zM1391 0v1434h192v-1434h-192z" />
<glyph unicode="&#x42c;" horiz-adv-x="1306" d="M174 0v1434h193v-584h411q59 0 115 -9t121.5 -37t113.5 -73t80.5 -125t32.5 -186q0 -77 -18 -141t-47 -106.5t-70.5 -75t-82 -50.5t-88.5 -29t-84 -14.5t-73 -3.5h-604zM367 162h389q14 0 30 1t45.5 7t56 16t56.5 30t51 46.5t35 69t14 94.5q0 262 -313 262h-364v-526z " />
<glyph unicode="&#x42d;" horiz-adv-x="1472" d="M92 498h193q4 -28 11 -57t22.5 -68t36.5 -73t54.5 -68t75 -58.5t100.5 -39.5t128 -15q107 0 190.5 33t132 81.5t80.5 116t44.5 124.5t15.5 118q3 34 0 67h-676v162h676q0 29 -3.5 62.5t-15.5 83.5t-31.5 95.5t-55.5 92.5t-82.5 81.5t-117 56.5t-155.5 22 q-181 0 -286 -85.5t-124 -213.5h-192q5 69 29 134t71 125t113 104.5t161.5 71t208.5 26.5q118 0 217 -26t168.5 -69t123 -104.5t86 -126.5t53.5 -141t28.5 -142t7.5 -135q0 -68 -6 -133t-24.5 -145t-48.5 -147.5t-82 -134t-121 -113t-169.5 -75t-223.5 -28.5 q-129 0 -233.5 36t-170 91.5t-112.5 130t-68 143.5t-29 140z" />
<glyph unicode="&#x42e;" horiz-adv-x="2033" d="M174 0v1434h193v-598h215q7 98 35 188t82.5 173.5t130 145t185 98t240.5 36.5q149 0 274 -49t217.5 -142t144 -239t51.5 -330q0 -128 -24.5 -240t-78 -208t-132.5 -165t-194.5 -108t-257.5 -39q-110 0 -203 23t-160.5 62t-121.5 95t-88.5 117.5t-58.5 135t-35 142 t-15 142.5h-206v-674h-193zM778 717q0 -97 15.5 -182.5t52 -163t90.5 -132.5t136 -87.5t185 -32.5q85 0 156 21.5t119.5 56.5t86 85.5t59.5 102.5t35.5 113.5t18.5 113t5 105.5q0 110 -19 200.5t-49 151t-72.5 107t-85 72t-91.5 41.5t-87 21t-76 5q-37 0 -74 -4.5t-86 -20.5 t-91.5 -41.5t-85.5 -71.5t-73.5 -107t-49.5 -152t-19 -201z" />
<glyph unicode="&#x42f;" horiz-adv-x="1392" d="M113 0l389 590q-45 2 -92 13t-102 40.5t-97 73t-70 119t-28 170.5q0 92 26 167t81.5 135t153.5 93t232 33h613v-1434h-193v569h-326l-350 -569h-237zM309 1004q0 -39 7 -73t29 -72.5t57.5 -65t99 -44.5t147.5 -18h377v541h-403q-92 0 -157 -25t-97.5 -67t-46 -85 t-13.5 -91z" />
<glyph unicode="&#x430;" horiz-adv-x="1132" d="M76 272q0 72 21.5 123t76.5 94.5t156.5 71t255.5 41.5q115 7 144 18q44 16 54 70q4 22 4 55q0 15 -1 27.5t-5.5 35t-13 40.5t-26 39t-41 34.5t-61.5 23t-85 9.5q-24 0 -44 -1.5t-56 -7.5t-63 -20.5t-53.5 -37.5t-40.5 -62.5t-13 -91.5h-172q0 46 10 90t40 92.5t76.5 83.5 t128 58.5t187.5 23.5q58 0 109 -7t110 -29.5t101 -59t69 -102t25 -152.5l-11 -481q0 -32 0.5 -45t6 -33.5t16.5 -28t32 -13t54 -3.5v-127q-33 -8 -82 -8q-86 0 -128 28.5t-58 122.5q-51 -93 -147 -138.5t-210 -45.5q-171 0 -268.5 77t-97.5 236zM262 279q0 -90 55.5 -141.5 t145.5 -51.5q46 0 86.5 9t82.5 34t73 64t52.5 103.5t26.5 147.5l4 88q-19 -15 -44 -24t-45.5 -11.5t-65 -7t-74.5 -8.5q-134 -23 -164 -31q-98 -29 -123 -101q-10 -30 -10 -70z" />
<glyph unicode="&#x431;" horiz-adv-x="1212" d="M88 662q0 160 22 281.5t57.5 198t90.5 129.5t111 78.5t129 41.5q72 17 142.5 27.5t107.5 13.5t69 9.5t47 19.5t23 40h153q-4 -66 -32 -111.5t-68 -68t-97.5 -37.5t-109.5 -19.5t-116 -13t-105 -20.5q-63 -17 -110.5 -45.5t-89.5 -77t-65.5 -126t-25.5 -181.5h4 q13 36 31.5 68t52 69.5t75.5 64t105.5 44.5t139.5 18q103 0 187 -31t140.5 -84t95 -125.5t55.5 -152.5t17 -168q0 -83 -18 -160.5t-58.5 -148t-98.5 -122.5t-145 -83t-192 -31q-103 0 -185.5 29t-136 74t-93.5 111t-60 126.5t-32 135.5t-14.5 123.5t-2.5 103.5zM279 492 q0 -53 7.5 -103.5t30 -107t57.5 -98.5t95.5 -69.5t138.5 -27.5q158 0 242 106.5t84 290.5q0 58 -5.5 111t-26 119t-54.5 113t-95.5 79.5t-144.5 32.5q-60 0 -109.5 -16.5t-83 -43t-59 -65t-40 -77.5t-23 -85t-11.5 -83t-3 -76z" />
<glyph unicode="&#x432;" horiz-adv-x="1103" d="M147 0v1040h496q29 0 51.5 -1t59 -6.5t64 -14.5t58 -28t50.5 -44t33.5 -64.5t13.5 -88.5q0 -52 -17.5 -95.5t-37.5 -67t-54 -44t-46 -25t-34 -12.5v-6q72 -17 120.5 -48t70.5 -71t29.5 -75t7.5 -79q0 -69 -23.5 -119.5t-59 -78.5t-88 -45t-99.5 -22t-105 -5h-490z M328 127h264q233 0 233 160q0 192 -239 192h-258v-352zM328 606h250q61 0 104.5 14.5t66 39t32.5 50.5t10 56q0 40 -15 68.5t-35.5 43.5t-51.5 23t-53 10t-50 2h-258v-307z" />
<glyph unicode="&#x433;" horiz-adv-x="886" d="M147 0v1040h713v-127h-532v-913h-181z" />
<glyph unicode="&#x434;" horiz-adv-x="1234" d="M0 127h131q84 124 127 296t43 443v174h746v-913h180l-15 -397h-151v270h-893v-270h-152zM322 127h544v786h-397v-145q0 -167 -35.5 -345t-111.5 -296z" />
<glyph unicode="&#x435;" horiz-adv-x="1167" d="M88 516q0 40 2.5 77t14.5 96.5t31.5 109.5t58 104t90 91.5t132 62t179.5 24.5q86 0 157 -19.5t119 -50t84.5 -77t58 -92.5t35.5 -105t19.5 -105.5t7.5 -101.5q0 -8 1 -25.5t1 -25.5h-800q0 -70 18.5 -137t56 -125.5t103.5 -94.5t151 -36q123 0 196.5 61t92.5 154h172 q-9 -48 -27 -92.5t-53.5 -91t-84 -80.5t-123.5 -56t-167 -22q-106 0 -191.5 27t-139 66.5t-93 97t-58.5 107t-30 109t-12.5 89t-1.5 61.5zM279 606h610q-2 47 -9.5 90t-27.5 92t-50 84t-82 58.5t-120 23.5q-76 0 -135 -24t-93 -60.5t-56 -85t-29.5 -91.5t-7.5 -87z" />
<glyph unicode="&#x436;" horiz-adv-x="1437" d="M-8 0l477 547l-451 493h213l398 -471v471h180v-471l397 471h213l-450 -493l477 -547h-223l-414 514v-514h-180v514l-414 -514h-223z" />
<glyph unicode="&#x437;" horiz-adv-x="1058" d="M66 319h172q0 -98 72 -165.5t204 -67.5q124 0 197 51.5t73 153.5q0 37 -10.5 67.5t-26.5 49.5t-39.5 32.5t-43.5 20.5t-45.5 11t-39.5 4.5t-30 0.5h-154v127h133q217 0 217 162q0 21 -3.5 41t-17.5 48.5t-38 49t-69.5 35t-106.5 14.5q-72 0 -123.5 -20.5t-76.5 -53.5 t-35.5 -64t-10.5 -62h-172q3 64 23.5 115.5t49.5 84.5t69.5 58t77 38t80.5 20.5t71.5 9t56.5 1.5q77 0 139.5 -12.5t104.5 -32t73.5 -47t49 -54.5t28.5 -58t14 -53.5t3 -45.5q0 -180 -180 -227v-6q90 -14 154.5 -81.5t64.5 -184.5q0 -30 -5 -59t-18.5 -61.5t-35 -60.5 t-56.5 -54t-79.5 -44.5t-108.5 -29.5t-140 -11q-114 0 -200.5 27t-133.5 65.5t-77 91.5t-39.5 93t-11.5 83z" />
<glyph unicode="&#x438;" horiz-adv-x="1218" d="M147 0v1040h181v-829l542 829h201v-1040h-180v831l-541 -831h-203z" />
<glyph unicode="&#x439;" horiz-adv-x="1218" d="M147 0v1040h181v-829l542 829h201v-1040h-180v831l-541 -831h-203zM252 1434h154q-7 -54 36 -101q29 -33 72 -49q37 -12 90 -12q86 0 144.5 43.5t54.5 118.5h153q-5 -30 -15 -58.5t-30.5 -63t-48.5 -61.5t-74 -50t-102 -32q-41 -6 -82 -6q-265 0 -338 215q-3 9 -7 28 t-7 28z" />
<glyph unicode="&#x43a;" horiz-adv-x="1001" d="M147 0v1040h181v-454l444 454h211l-487 -483l514 -557h-215l-467 520v-520h-181z" />
<glyph unicode="&#x43b;" horiz-adv-x="1144" d="M27 0v133q59 -12 103.5 2t70.5 57t42.5 86.5t23 118.5t8 123t1.5 129v391h721v-1040h-180v913h-373v-264q0 -128 -6 -216t-30 -187.5t-67.5 -154.5t-123 -83.5t-190.5 -7.5z" />
<glyph unicode="&#x43c;" horiz-adv-x="1499" d="M147 0v1040h248l355 -845l354 845h248v-1040h-181v780l7 56h-7l-352 -836h-139l-352 836h-4l4 -56v-780h-181z" />
<glyph unicode="&#x43d;" horiz-adv-x="1169" d="M147 0v1040h181v-428h514v428h180v-1040h-180v485h-514v-485h-181z" />
<glyph unicode="&#x43e;" horiz-adv-x="1200" d="M88 520q0 86 16.5 164.5t55 152t96 127t146 85.5t198.5 32t198.5 -32t146 -85.5t96 -127t55 -152t16.5 -164.5t-16.5 -164.5t-55 -152t-96 -127t-146 -85.5t-198.5 -32t-198.5 32t-146 85.5t-96 127t-55 152t-16.5 164.5zM279 522q0 -86 14 -155.5t35 -114t52.5 -77.5 t59.5 -49.5t62 -26t54.5 -11.5t43.5 -2t43.5 2t55 11.5t62.5 26t59 49.5t52.5 77.5t35.5 114t14 155.5t-14 155.5t-35.5 114t-52.5 77.5t-59 49.5t-62.5 26t-55 11.5t-43.5 2t-43.5 -2t-54.5 -11.5t-62 -26t-59.5 -49.5t-52.5 -77.5t-35 -114t-14 -155.5z" />
<glyph unicode="&#x43f;" horiz-adv-x="1181" d="M147 0v1040h887v-1040h-180v913h-526v-913h-181z" />
<glyph unicode="&#x440;" horiz-adv-x="1222" d="M147 -379v1419h168v-143h7q121 184 344 184q98 0 181.5 -33.5t148.5 -100t102 -176t37 -251.5q0 -117 -25.5 -212.5t-69.5 -159.5t-104 -107t-126.5 -62.5t-139.5 -19.5q-26 0 -60 5.5t-89.5 22t-108 59t-84.5 104.5v-529h-181zM315 516q0 -93 20.5 -168t53 -123t76 -80 t86.5 -45.5t86 -13.5q46 0 88 13t82.5 44.5t70.5 80t48 124.5t18 172q0 203 -82.5 318.5t-234.5 115.5q-34 0 -68.5 -7t-80.5 -34.5t-80 -72t-58.5 -128.5t-24.5 -196z" />
<glyph unicode="&#x441;" horiz-adv-x="1122" d="M88 528q0 79 12.5 151t46.5 147.5t87.5 130t143.5 89.5t206 35q106 0 191 -29.5t139 -81t85.5 -116t40.5 -139.5h-172q-11 65 -39 113t-57.5 71.5t-69.5 36.5t-63.5 15.5t-50.5 2.5q-82 0 -143 -33t-96.5 -92t-52.5 -134t-17 -167q0 -91 18.5 -169t55.5 -140t100.5 -97.5 t146.5 -35.5q59 0 107 19t78 48t51 68t30 76t11 74h172q-4 -45 -15 -91t-42.5 -106.5t-78 -105.5t-129.5 -77t-188 -32q-32 0 -61.5 2t-84 14t-99 33t-95.5 63.5t-86 100.5t-58.5 150t-23.5 206z" />
<glyph unicode="&#x442;" horiz-adv-x="954" d="M27 913v127h901v-127h-361v-913h-180v913h-360z" />
<glyph unicode="&#x443;" horiz-adv-x="1019" d="M14 1040h215l334 -841l277 841h180l-414 -1163l-6 -18q-14 -42 -23 -65.5t-31.5 -63t-47.5 -61t-68 -39t-96 -17.5q-99 0 -148 10v133q69 -10 90 -10q36 0 62.5 12t44.5 38t28.5 50t24.5 64q3 8 4 12l25 78z" />
<glyph unicode="&#x444;" horiz-adv-x="1626" d="M88 526q0 48 6 94t23.5 102.5t45.5 104.5t77.5 94.5t114 78.5t159 50t209.5 15v369h180v-369q81 3 159 -7.5t167 -45t155 -92t110 -159t44 -235.5q0 -121 -34.5 -217t-108 -171.5t-198 -118t-294.5 -46.5v-352h-180v352q-143 3 -254.5 35t-182 83t-116 122.5t-64 147.5 t-18.5 165zM279 528q0 -78 16.5 -142t43.5 -107t65.5 -76.5t78 -52.5t85 -30.5t81.5 -15.5t74 -4v838q-59 3 -115.5 -4.5t-118 -34t-106.5 -71t-74.5 -121.5t-29.5 -179zM903 100q89 0 161 19t119.5 53t81 75.5t51 92t25 95.5t7.5 93q0 49 -8.5 99t-37.5 111.5t-75.5 106 t-130 72.5t-193.5 21v-838z" />
<glyph unicode="&#x445;" horiz-adv-x="991" d="M0 0l393 543l-364 497h200l267 -385l266 385h201l-365 -497l393 -543h-200l-295 428l-295 -428h-201z" />
<glyph unicode="&#x446;" horiz-adv-x="1220" d="M147 0v1040h181v-913h524v913h180v-913h180l-14 -397h-151v270h-900z" />
<glyph unicode="&#x447;" horiz-adv-x="1040" d="M92 692v348h180v-319q0 -27 0.5 -39.5t3 -33t9 -30t17 -23t28 -19.5t42 -13t58.5 -9.5t78 -2.5q41 0 119 4q14 2 43 2h43v483h180v-1040h-180v430q-88 -6 -242 -6q-77 0 -137 8t-99.5 19.5t-67.5 33t-42.5 40.5t-22 51t-9 55t-1.5 61z" />
<glyph unicode="&#x448;" horiz-adv-x="1703" d="M147 0v1040h181v-913h434v913h180v-913h434v913h180v-1040h-1409z" />
<glyph unicode="&#x449;" horiz-adv-x="1740" d="M147 0v1040h181v-913h434v913h180v-913h434v913h180v-913h177l-17 -397h-151v270h-1418z" />
<glyph unicode="&#x44a;" horiz-adv-x="1208" d="M27 913v127h450v-411h260q40 0 71 -1.5t77 -8.5t80.5 -19.5t72 -36.5t61.5 -56.5t40 -82.5t16 -113q0 -311 -354 -311h-504v913h-270zM477 127h252q32 0 60.5 3.5t63 16t59 33t41 57.5t16.5 87q0 29 -6 53.5t-16.5 41.5t-25 31t-31.5 22.5t-36 15t-38 9t-38 4.5t-36 1 t-32 0h-14h-219v-375z" />
<glyph unicode="&#x44b;" horiz-adv-x="1462" d="M147 0v1040h181v-411h262q39 0 69.5 -1.5t76 -8.5t80.5 -19.5t72.5 -36.5t62.5 -56.5t41 -82.5t16 -113t-17.5 -115.5t-56 -98t-111 -71.5t-172.5 -26h-504zM328 127h252q31 0 59.5 3.5t63 16t59.5 33t42 57.5t17 87q0 26 -4 48.5t-14 39t-19 30t-26.5 23t-30 16 t-35 10.5t-35.5 6.5t-38 3.5t-36 1h-36h-219v-375zM1135 0v1040h180v-1040h-180z" />
<glyph unicode="&#x44c;" horiz-adv-x="1052" d="M147 0v1040h181v-413h260q40 0 72.5 -1.5t78 -8.5t80 -19t71.5 -35t61 -54t39.5 -78.5t15.5 -106.5q0 -64 -15.5 -115.5t-39 -84.5t-58 -57.5t-65.5 -37t-69 -19.5t-61 -8.5t-49 -1.5h-502zM328 127h250q56 0 99.5 10t68.5 29t41 37.5t22.5 44.5t8 41t1.5 35 q0 29 -5.5 53t-16 41t-24.5 31t-30.5 22t-34.5 14.5t-37 9t-38 4.5t-37 1.5t-34 -0.5h-15h-219v-373z" />
<glyph unicode="&#x44d;" horiz-adv-x="1132" d="M76 360h172q17 -137 91 -205.5t212 -68.5q59 0 107 17t79 43t54 64t34.5 72.5t18.5 75.5t8.5 66.5t1.5 52.5h-448v127h448q-2 77 -19.5 137.5t-45 97t-57.5 61t-65.5 35.5t-59.5 15t-48 4q-136 0 -215.5 -67.5t-87.5 -171.5h-172q8 72 32.5 130.5t56.5 95.5t75.5 64.5 t81.5 41.5t83 22.5t72 10t56 1.5q503 0 503 -569q0 -99 -16.5 -180t-43.5 -137.5t-67 -99.5t-82 -68t-93 -41t-96 -21.5t-95 -5.5q-38 0 -68 2t-77 10.5t-83.5 24t-79.5 45.5t-74 71t-56.5 104.5t-36.5 143.5z" />
<glyph unicode="&#x44e;" horiz-adv-x="1597" d="M147 0v1040h181v-428h164q7 70 28 134.5t61 126.5t95.5 107.5t138 73t182.5 27.5q104 0 193 -31.5t162 -96t115 -175t42 -256.5q0 -114 -26 -206.5t-64 -150t-93 -99.5t-101 -62t-100 -31t-77.5 -12.5t-46.5 -1.5q-112 0 -200.5 33.5t-142.5 85t-91.5 124t-53.5 140.5 t-21 143h-164v-485h-181zM682 522q0 -56 6 -107t26 -114t53 -108t93.5 -76t140.5 -31q64 0 115.5 20.5t84 50.5t56 74.5t35.5 82.5t18.5 85t7.5 71.5t1 51.5t-1 52t-8 71.5t-18.5 84.5t-35.5 81.5t-56.5 73t-84 49.5t-114.5 20q-23 0 -43 -2t-54 -11.5t-61.5 -25.5 t-59 -48.5t-52.5 -76.5t-35 -113t-14 -155z" />
<glyph unicode="&#x44f;" horiz-adv-x="1112" d="M76 0l286 412q-114 13 -190 91t-76 210q0 44 7.5 85t31 86.5t60.5 78.5t101.5 55t149.5 22h519v-1040h-181v410h-237l-273 -410h-198zM283 719q0 -33 10.5 -62t36 -57.5t77 -45.5t123.5 -17h254v376h-260q-22 0 -36.5 -0.5t-42 -4.5t-47 -10.5t-43 -21t-38 -34.5 t-24.5 -51.5t-10 -71.5z" />
<glyph unicode="&#x451;" horiz-adv-x="1171" d="M88 516q0 83 11.5 156.5t45.5 150.5t87 132t143.5 90.5t208.5 35.5q247 0 373 -139.5t126 -411.5v-51h-804q0 -56 10.5 -109.5t35.5 -105.5t62 -91t93.5 -63t125.5 -24q230 0 287 215h172q-9 -39 -23 -74.5t-37 -76.5t-58 -73.5t-80.5 -60t-111 -42.5t-143.5 -15 q-116 0 -208 32t-150 84.5t-96.5 125.5t-54 150.5t-15.5 164.5zM268 1245v189h181v-189h-181zM279 606h614q-20 191 -90.5 269.5t-202.5 78.5q-75 0 -133.5 -25t-92 -62t-55.5 -87t-30 -91t-10 -83zM748 1245v189h180v-189h-180z" />
<glyph unicode="&#x452;" horiz-adv-x="1196" d="M0 1178v127h164v129h180v-129h432v-127h-432v-324q68 97 151.5 141.5t190.5 44.5q62 0 112.5 -11t89 -33.5t67.5 -53t48.5 -75t32.5 -92.5t20.5 -112.5t10 -128.5t2.5 -147q0 -94 -2 -154t-11.5 -148.5t-27 -145.5t-52.5 -122.5t-84 -103.5t-123.5 -64.5t-170.5 -27.5 v133h45q43 0 78 13.5t59 44.5t41.5 62t28 84.5t17 92t9 106.5t3 105t0.5 107v14v13q0 90 -1.5 135t-7.5 117.5t-21 110t-40.5 78.5t-68.5 58.5t-101 17.5q-59 0 -106 -15t-77.5 -37.5t-52.5 -58t-33 -67t-17.5 -74.5t-7.5 -70.5t-1 -64.5v-526h-180v1178h-164z" />
<glyph unicode="&#x453;" horiz-adv-x="886" d="M147 0v1040h713v-127h-532v-913h-181zM315 1163l144 271h217l-197 -271h-164z" />
<glyph unicode="&#x454;" horiz-adv-x="1134" d="M88 512q0 107 18.5 194.5t48 145.5t72.5 101.5t85 67t94 38t91 18.5t83 4q108 0 192.5 -25.5t134 -63.5t82 -89.5t45 -96t15.5 -91.5h-172q0 78 -47.5 134t-116.5 80.5t-150 24.5q-40 0 -76 -8.5t-74 -32t-65.5 -61t-46.5 -101.5t-22 -147h477v-127h-477q7 -391 305 -391 q271 0 303 276h172q-3 -52 -16 -101t-46.5 -106t-83.5 -98.5t-134.5 -69.5t-192.5 -28q-28 0 -52.5 1.5t-64 7.5t-72.5 16t-73 30.5t-72 48t-64 70t-53 95t-34 125.5t-13 159z" />
<glyph unicode="&#x455;" horiz-adv-x="1036" d="M74 309h180q2 -60 26.5 -104.5t65.5 -69.5t88.5 -37t102.5 -12q50 0 89.5 9t64 22t42 33.5t25.5 36.5t12.5 39t5 32t0.5 25q0 30 -6 49.5t-27 42.5t-67 42.5t-119 37.5l-111 24q-63 14 -102 25.5t-87 35t-74.5 53t-45 77.5t-18.5 112q0 83 34.5 143.5t93.5 93t125 47.5 t142 15q73 0 134 -11.5t103 -30t74.5 -45.5t52 -54t32.5 -60t18.5 -58.5t7.5 -53.5h-172q-2 22 -7.5 42.5t-21.5 48t-41 47.5t-70 34t-104 14q-14 0 -25 -1t-40.5 -4.5t-51.5 -14t-46.5 -27t-38 -47t-13.5 -69.5q0 -24 4 -44t15.5 -36t21 -28t30.5 -22.5t33.5 -16.5t42 -14 t43 -11t48.5 -10.5l49 -10.5q45 -10 69.5 -16t62.5 -17t59.5 -19.5t50.5 -23t45 -29t34.5 -35t27.5 -44t15.5 -54t6.5 -65.5q0 -67 -22 -121.5t-54.5 -88.5t-78 -59.5t-85 -37.5t-84 -19.5t-65.5 -8.5t-39 -1q-221 0 -338.5 99t-122.5 251z" />
<glyph unicode="&#x456;" horiz-adv-x="466" d="M143 0v1040h181v-1040h-181zM143 1245v189h181v-189h-181z" />
<glyph unicode="&#x457;" horiz-adv-x="559" d="M47 1245v189h180v-189h-180zM188 0v1040h183v-1040h-183zM332 1245v189h180v-189h-180z" />
<glyph unicode="&#x458;" horiz-adv-x="473" d="M-33 -252q51 9 77.5 14t50.5 16t32.5 17.5t15 28t7 37t0.5 55.5v10v1114h180v-1136q0 -148 -54 -219.5t-192 -71.5q-17 0 -117 8v127zM150 1245v189h180v-189h-180z" />
<glyph unicode="&#x459;" horiz-adv-x="1726" d="M27 0v133q28 -4 39 -4q41 0 73.5 14.5t54.5 37.5t37.5 63t24 79t13.5 98t6 108t1 120v391h723v-407h263q40 0 72 -1.5t77.5 -9t80 -20t71.5 -37t61 -57.5t39.5 -83.5t15.5 -113.5q0 -61 -14.5 -110t-37 -81t-56 -55.5t-64 -35.5t-68.5 -19t-63 -8.5t-53 -1.5h-504v913 h-373v-264q0 -86 -1.5 -139t-8.5 -130.5t-20 -125t-38.5 -102.5t-62 -85.5t-91.5 -51.5t-126 -21q-34 0 -71 6zM999 127h252q242 0 242 197q0 55 -21 92.5t-61 56t-85 26t-105 7.5h-222v-379z" />
<glyph unicode="&#x45a;" horiz-adv-x="1751" d="M147 0v1040h181v-411h516v411h180v-411h260h59q46 0 88.5 -6t94.5 -26t89.5 -53t63 -93t25.5 -140q0 -311 -356 -311h-504v502h-516v-502h-181zM1024 127h252q242 0 242 197q0 33 -7 59.5t-22.5 44.5t-30.5 31.5t-40 21.5t-41.5 12.5t-44.5 6.5t-39 2h-35h-13h-221v-375z " />
<glyph unicode="&#x45b;" d="M0 1178v127h164v129h180v-129h432v-127h-432v-324q71 97 157.5 141.5t198.5 44.5q55 0 101.5 -11t79.5 -27.5t59 -43t42.5 -50.5t28 -58t17 -57.5t8.5 -56.5t3.5 -47.5t0.5 -37.5v-651h-180v596q0 102 -9 145q-34 172 -210 172q-61 0 -110 -18.5t-79 -44.5t-52 -66.5 t-32.5 -73t-16.5 -76t-6.5 -63t-0.5 -45.5v-526h-180v1178h-164z" />
<glyph unicode="&#x45c;" horiz-adv-x="1001" d="M147 0v1040h181v-454l444 454h211l-487 -483l514 -557h-215l-467 520v-520h-181zM373 1163l143 271h217l-196 -271h-164z" />
<glyph unicode="&#x45e;" horiz-adv-x="1019" d="M14 1040h215l334 -841l277 841h180l-414 -1163l-6 -18q-14 -42 -23 -65.5t-31.5 -63t-47.5 -61t-68 -39t-96 -17.5q-99 0 -148 10v133q69 -10 90 -10q36 0 62.5 12t44.5 38t28.5 50t24.5 64q3 8 4 12l25 78zM158 1434h151q5 -68 55 -115t146 -47t146 47t55 115h151 q-5 -36 -18 -70.5t-40.5 -72t-65 -65t-97 -45.5t-131.5 -18t-131.5 18t-97 45.5t-65 65t-40.5 72t-18 70.5z" />
<glyph unicode="&#x45f;" horiz-adv-x="1183" d="M147 0v1040h181v-913h528v913h180v-1040h-364v-379h-160v379h-365z" />
<glyph unicode="&#x460;" horiz-adv-x="1916" d="M92 680q0 152 23 274q22 103 84 217q163 303 497 306v-162q-105 -6 -187.5 -66t-133.5 -168q-78 -157 -78 -401q0 -330 100 -457q72 -104 191 -104q126 0 198 82q42 48 56 118q17 69 20 289v191h193v-191q-3 -212 16 -289q17 -70 59 -118q69 -82 199 -82q114 0 191 104 q97 129 100 457q0 238 -78 401q-54 109 -136 168.5t-185 65.5v162q328 -3 497 -306q58 -108 82 -217q25 -116 25 -274q0 -376 -162 -571q-64 -80 -139.5 -115t-190.5 -35q-178 0 -276 98q-81 78 -96 189h-5q-21 -114 -96 -189q-103 -98 -276 -98q-117 1 -192.5 36 t-137.5 114q-162 191 -162 571z" />
<glyph unicode="&#x461;" horiz-adv-x="1515" d="M88 483q0 115 20 198.5t64 158.5q65 108 166.5 163.5t228.5 57.5v-127q-77 -6 -136.5 -50t-96.5 -116q-55 -113 -55 -285q0 -234 71 -323q55 -74 139 -74q79 0 129 57q26 37 37 88q13 60 13 199v139h180v-139q-3 -139 10 -199q11 -53 39 -88q44 -57 129 -57q78 0 139 74 q72 99 72 323q0 165 -55 285q-38 72 -98 116t-136 50v127q125 -2 227 -57.5t168 -163.5q84 -147 84 -357q-3 -274 -131 -415q-54 -59 -116 -83t-150 -24q-124 0 -201 70q-56 47 -69 137h-4q-16 -86 -70 -137q-80 -70 -201 -70q-90 0 -151.5 24t-114.5 83q-131 140 -131 415z " />
<glyph unicode="&#x462;" horiz-adv-x="1523" d="M27 1108v162h311v164h192v-164h451v-162h-451v-258h412q221 0 342 -113t121 -317q0 -77 -18 -141t-47 -106.5t-70.5 -75t-82 -50.5t-88.5 -29t-84 -14.5t-73 -3.5h-604v1108h-311zM530 162h390q14 0 30 1t45.5 7t56 16t56.5 30t51 46.5t35 69t14 94.5q0 125 -73.5 193.5 t-241.5 68.5h-363v-526z" />
<glyph unicode="&#x463;" horiz-adv-x="1208" d="M27 913v127h270v394h180v-394h389v-127h-389v-284h260q40 0 71 -1.5t77 -8.5t80.5 -19.5t72 -36.5t61.5 -56.5t40 -82.5t16 -113q0 -311 -354 -311h-504v913h-270zM477 127h252q32 0 60.5 3.5t63 16t59 33t41 57.5t16.5 87q0 37 -11 67t-25.5 48t-39 31t-42 19t-46 9.5 t-38.5 3.5h-30h-260v-375z" />
<glyph unicode="&#x464;" horiz-adv-x="1966" d="M174 0v1434h193v-615h217q11 168 77 311t177 228q155 119 419 119q217 -3 359 -93q94 -62 153 -157.5t72 -210.5h-205q-35 164 -161 241q-103 55 -232 58q-255 0 -377 -187q-83 -128 -86 -309h707v-162h-707q3 -230 90 -356q121 -185 390 -182q141 -3 241 69 q131 97 168 310h205q-17 -136 -77 -249.5t-150 -180.5q-145 -109 -390 -109q-263 0 -419 117q-127 90 -192.5 241.5t-67.5 339.5h-211v-657h-193z" />
<glyph unicode="&#x465;" horiz-adv-x="1540" d="M147 0v1040h181v-436h168q12 230 141 359q63 60 144.5 89t205.5 29q112 0 189 -22.5t143 -73.5q124 -107 135 -270h-172q-3 83 -72 159q-43 41 -94 59.5t-125 20.5q-97 0 -159.5 -34.5t-100.5 -104.5q-49 -87 -49 -211h479v-127h-477q0 -151 47 -237q37 -79 99 -116.5 t159 -37.5q174 0 250 115q40 56 53 161h172q-12 -187 -137 -299q-60 -54 -137 -77t-199 -25q-138 0 -230.5 37t-154.5 121q-51 63 -80.5 158.5t-31.5 199.5h-166v-477h-181z" />
<glyph unicode="&#x466;" horiz-adv-x="1474" d="M-8 0l643 1434h205l643 -1434h-226l-194 453h-229v-453h-193v453h-229l-195 -453h-225zM471 614h533l-267 625z" />
<glyph unicode="&#x467;" horiz-adv-x="1265" d="M20 0l508 1040h209l508 -1040h-201l-165 348h-156v-348h-180v348h-156l-166 -348h-201zM442 475h381l-190 402z" />
<glyph unicode="&#x468;" horiz-adv-x="2007" d="M174 0v1434h193v-820h434l366 820h205l643 -1434h-225l-195 453h-229v-453h-192v453h-230l-194 -453h-226l203 453h-360v-453h-193zM1004 614h532l-266 625z" />
<glyph unicode="&#x469;" horiz-adv-x="1679" d="M147 0v1040h181v-565h338l276 565h209l508 -1040h-201l-166 348h-155v-348h-181v348h-155l-166 -348h-201l170 348h-276v-348h-181zM856 475h381l-190 402z" />
<glyph unicode="&#x46a;" horiz-adv-x="1695" d="M-8 0l678 811l-510 623h1376l-510 -623l678 -811h-234l-526 647v-647h-192v647l-527 -647h-233zM524 1272l324 -412l323 412h-647z" />
<glyph unicode="&#x46b;" horiz-adv-x="1437" d="M74 0l524 594l-383 446h1008l-383 -446l524 -594h-223l-332 399v-399h-180v399l-332 -399h-223zM537 913l182 -225l182 225h-364z" />
<glyph unicode="&#x46c;" horiz-adv-x="2211" d="M174 0v1434h193v-553h761l-452 553h1376l-510 -623l678 -811h-233l-527 647v-647h-192v647l-527 -647h-233l600 719h-741v-719h-193zM1040 1272l324 -412l324 412h-648z" />
<glyph unicode="&#x46d;" horiz-adv-x="1802" d="M147 0v1040h181v-405h600l-348 405h1007l-383 -446l525 -594h-224l-331 399v-399h-181v399l-331 -399h-224l449 508h-559v-508h-181zM901 913l182 -225l183 225h-365z" />
<glyph unicode="&#x46e;" horiz-adv-x="1341" d="M92 -113q0 150 96 222q38 29 94 41t154 12h236q65 -1 131 13.5t108 39.5q115 65 115 205q0 67 -32 124t-89 89q-77 41 -207 41h-188v162h170q114 0 178 34q59 29 85 75.5t26 117.5q0 113 -90 188q-46 33 -101 48.5t-139 15.5q-156 0 -242 -62q-109 -79 -112 -217h-193 q12 192 121 301q45 43 109.5 75t132.5 44l-342 305h245l295 -284l256 223q50 43 89.5 58.5t99.5 15.5q20 0 51.5 -4t42.5 -5v-143q-13 1 -40.5 4t-37.5 4q-71 0 -127 -47l-147 -127q111 -23 186 -80q139 -112 139 -301q0 -156 -106 -246q-62 -53 -137 -65v-4q96 -24 165 -70 q136 -102 136 -289q0 -101 -44 -183t-128 -136q-129 -82 -371 -82h-244q-77 0 -110 -23q-41 -24 -41 -88q0 -56 45 -82q20 -12 44.5 -17t82.5 -5h479v-162h-492q-122 0 -200 29q-152 60 -152 235z" />
<glyph unicode="&#x46f;" horiz-adv-x="1161" d="M66 1434h194l295 -353l256 287q65 74 172 74q10 0 43 -3.5t47 -4.5v-129q-42 10 -82 10q-68 0 -114 -49l-179 -197q88 -13 162 -68q107 -87 107 -223q0 -115 -74 -176q-48 -39 -107 -51v-4q65 -14 129 -58q91 -78 91 -190q0 -154 -134 -236q-56 -33 -126 -48t-183 -15 h-100q-92 0 -121 -27q-43 -32 -43 -102q0 -62 49 -96q14 -9 25 -13t39 -8t71 -4h400v-127h-412q-114 1 -181.5 23t-109.5 67q-61 70 -61 174q0 129 98 193q71 47 207 47h135q121 0 176 31q84 44 84 143q-3 89 -74 139q-63 37 -161 37h-154v127h133q95 0 144 27q73 42 73 135 t-73 149q-59 39 -162 39q-76 -1 -121.5 -19t-77.5 -56q-47 -53 -47 -125h-172q3 133 100 227q70 70 176 86z" />
<glyph unicode="&#x470;" horiz-adv-x="1515" d="M109 1073v361h192v-363q0 -152 8 -209q7 -53 33 -106q39 -83 122.5 -126.5t197.5 -39.5v844h192v-844q110 -5 194 38t126 128q21 44 30 106q10 72 10 209v363h193v-361q0 -207 -31 -319q-26 -104 -106 -181q-68 -66 -180.5 -105.5t-235.5 -39.5v-428h-192v428 q-127 0 -241 39.5t-177 105.5q-71 71 -105 181q-30 111 -30 319z" />
<glyph unicode="&#x471;" horiz-adv-x="1507" d="M135 670v370h180v-354q0 -176 19.5 -278.5t62.5 -159.5q42 -60 110.5 -91.5t145.5 -29.5v1307h181v-1307q93 -3 172 41q96 51 142 148t46 264q0 81 -6 130t-23 119q-30 117 -82 211l187 25q42 -75 80 -201q34 -133 34 -289q0 -406 -286 -528q-103 -47 -264 -47v-377h-181 v377q-142 0 -250 46.5t-170 133.5q-50 61 -75 160q-23 103 -23 330z" />
<glyph unicode="&#x472;" horiz-adv-x="1966" d="M20 446v347h281q10 199 100 366q86 154 234 236t348 82q199 0 347 -82t235 -236q87 -166 100 -366h281v-347h-172v205h-109q-10 -216 -98 -379q-174 -313 -584 -313q-413 0 -584 313q-95 164 -98 379h-108v-205h-173zM506 651q3 -147 47 -248q54 -140 163 -212t267 -72 q150 0 261.5 73t168.5 211q37 98 47 248h-954zM506 793h954q-13 141 -61 258q-58 129 -163 196.5t-253 67.5q-147 0 -253 -67t-163 -197q-51 -118 -61 -258z" />
<glyph unicode="&#x473;" horiz-adv-x="1556" d="M20 258v332h252q7 112 52 214t114 165q124 112 340 112q210 0 340 -112q67 -63 111 -164.5t55 -214.5h252v-332h-164v205h-88q-4 -114 -50.5 -220t-115.5 -169q-124 -113 -340 -113q-219 0 -340 113q-71 63 -118 169t-48 220h-88v-205h-164zM461 463q0 -70 18.5 -137 t50.5 -111q81 -129 248 -129q164 0 248 129q31 44 49.5 111.5t20.5 136.5h-635zM461 590h635q-9 142 -68 237q-84 124 -250 127q-169 -3 -250 -127q-64 -93 -67 -237z" />
<glyph unicode="&#x474;" horiz-adv-x="1433" d="M-8 1434h211l405 -1235l260 891q27 92 62.5 158.5t71 104t80.5 59t82 28t83 6.5q85 0 160 -21v-168q-68 23 -135 23q-81 0 -133.5 -44.5t-91.5 -166.5l-324 -1069h-229z" />
<glyph unicode="&#x475;" horiz-adv-x="1105" d="M-8 1040h194l295 -860l172 582q25 86 54 142t68.5 88t85.5 44.5t110 12.5q47 0 108 -9v-135q-39 10 -82 10q-23 0 -39 -2t-38.5 -11.5t-39 -27.5t-35 -52.5t-32.5 -82.5l-227 -739h-209z" />
<glyph unicode="&#x476;" horiz-adv-x="1433" d="M-6 1434h209l405 -1235l260 891q53 184 139.5 269.5t239.5 86.5q83 0 160 -21v-168q-77 23 -135 23q-89 0 -140.5 -50t-84.5 -161l-324 -1069h-229zM258 1843h217l143 -287h-163zM571 1843h217l144 -287h-164z" />
<glyph unicode="&#x477;" horiz-adv-x="1105" d="M-6 1040h192l295 -860l172 582q49 168 117 227q72 60 201 60q22 0 59 -4t49 -5v-135q-45 10 -82 10q-74 -1 -115.5 -42.5t-68.5 -133.5l-227 -739h-209zM94 1434h217l144 -271h-164zM408 1434h217l143 -271h-164z" />
<glyph unicode="&#x478;" horiz-adv-x="2539" d="M92 717q0 207 68 371.5t202 265.5q168 123 414 123q242 0 414 -123q270 -202 270 -637q0 -218 -72 -383.5t-192 -255.5q-154 -116 -420 -119q-264 0 -418 119q-132 96 -199 262.5t-67 376.5zM297 717q0 -344 168 -490q119 -108 311 -108q189 0 309 108q86 76 128 194.5 t42 295.5q0 161 -47.5 290t-128.5 203q-114 102 -303 105q-190 -3 -303 -105q-85 -74 -130.5 -200.5t-45.5 -292.5zM1534 1040h215l334 -841l276 841h181l-414 -1161q-58 -164 -119 -213q-57 -48 -154 -51q-92 0 -147 10v133q72 -10 90 -10q59 0 94.5 36.5t69.5 139.5l25 76 z" />
<glyph unicode="&#x479;" horiz-adv-x="2129" d="M90 520q-2 138 42 254t130 193q132 114 340 114q205 0 340 -114q84 -76 127 -192t45 -255q0 -140 -43.5 -256t-128.5 -190q-127 -113 -340 -113q-216 0 -340 113q-86 73 -129 189t-43 257zM281 522q0 -203 71 -307q81 -129 250 -129q166 0 250 129q72 110 72 307 q0 194 -72 307q-86 126 -250 129q-166 0 -250 -129q-71 -107 -71 -307zM1126 1040h215l334 -841l277 841h180l-414 -1161q-57 -163 -119 -215q-58 -49 -153 -49q-113 4 -148 10v133q19 -3 37 -5t33.5 -3t20.5 -2q59 0 94 36.5t69 139.5l25 76z" />
<glyph unicode="&#x47a;" horiz-adv-x="1744" d="M92 717q0 206 76.5 369.5t226.5 261.5q159 101 381 114v123h193v-123q222 -14 383 -114q151 -101 226 -263t75 -368q0 -208 -75.5 -370.5t-225.5 -260.5q-154 -99 -383 -113v-123h-193v123q-229 13 -381 113q-151 96 -227 260t-76 371zM297 717q0 -334 201 -481 q118 -93 278 -103v113h193v-113q149 9 274 103q103 77 154 192.5t51 288.5q0 169 -51 285t-154 196q-128 90 -274 102v-112h-193v112q-157 -13 -278 -102q-201 -150 -201 -481z" />
<glyph unicode="&#x47b;" horiz-adv-x="1380" d="M90 520q-1 144 52.5 255.5t150.5 182.5q61 45 142.5 74t166.5 35v104h180v-104q84 -6 166 -35t144 -74q95 -71 148.5 -182.5t53.5 -255.5q0 -145 -53.5 -256.5t-148.5 -181.5q-122 -94 -310 -107v-104h-180v104q-190 13 -309 107q-96 69 -149.5 180.5t-53.5 257.5z M281 522q0 -200 92 -299q85 -105 229 -121v82h180v-82q142 16 230 121q92 106 92 299q0 187 -92 299q-85 98 -230 121v-82h-180v82q-147 -23 -229 -121q-48 -55 -70 -125.5t-22 -173.5z" />
<glyph unicode="&#x47c;" horiz-adv-x="1916" d="M92 680q0 281 105 448q75 121 206.5 193.5t292.5 73.5v-162q-106 -4 -189 -59t-132 -144q-78 -134 -78 -350q0 -325 100 -457q74 -107 191 -104q126 0 198 82q42 48 56 118q17 69 20 289v191h193v-191q0 -211 16 -289q17 -70 59 -118q71 -85 199 -82q114 0 191 104 q97 132 100 457q0 211 -78 350q-51 89 -134.5 144t-186.5 59v162q158 -1 290 -73.5t209 -193.5q105 -172 105 -448q-3 -380 -162 -571q-64 -79 -140 -114.5t-190 -35.5q-178 0 -276 98q-81 78 -96 189h-5q-21 -114 -96 -189q-100 -95 -276 -98q-115 0 -191 35.5t-139 114.5 q-162 191 -162 571zM524 1585q19 112 69.5 196t125.5 128q91 54 239 57q135 -3 226 -49q67 -39 123 -107q46 -64 55 -73q10 -9 20 -13q30 -19 64 -16h49v-123h-65q-93 0 -140 41q-26 19 -59 70q-35 53 -57 78q-86 77 -216 77q-152 0 -233 -100q-56 -69 -66 -166h-135z M745 1495q10 85 35 139q25 51 71 80.5t107 30.5q59 0 105.5 -29.5t73.5 -81.5q19 -48 34 -139h-114q-3 56 -19 98q-32 58 -80 58q-51 0 -79 -58q-19 -37 -19 -98h-115z" />
<glyph unicode="&#x47d;" horiz-adv-x="1515" d="M88 463q0 203 84 328q120 176 395 188v-127q-163 -14 -235 -137q-56 -91 -53 -252q0 -218 71 -303q53 -74 139 -74q132 0 166 141q13 63 13 203v139h180v-139q-3 -145 12 -203q13 -71 56 -107t110 -34q80 0 139 74q72 90 72 303q0 162 -53 254q-37 57 -103.5 95.5 t-132.5 39.5v127q264 -3 395 -191q84 -130 84 -325q0 -251 -131 -395q-56 -59 -117 -83t-149 -24q-124 0 -201 70q-56 47 -69 137h-4q-16 -86 -70 -137q-80 -70 -201 -70q-89 0 -150 24t-116 83q-131 137 -131 395zM324 1208q36 230 194 328q98 61 240 61q122 0 225 -53 q78 -49 123 -110q13 -17 25.5 -34.5t18.5 -26t9 -11.5q5 -5 23 -14q32 -20 63 -17h49v-123h-65q-89 -3 -139 41q-20 14 -62 72q-38 56 -55 76q-84 78 -215 78q-85 0 -140.5 -25t-93.5 -76q-56 -75 -65 -166h-135zM545 1085q3 77 35 150q50 121 178 121q125 0 178 -121 q25 -64 35 -150h-115q-10 80 -20 113q-24 61 -78 64q-57 -3 -78 -64q-18 -49 -21 -113h-114z" />
<glyph unicode="&#x47e;" horiz-adv-x="1916" d="M92 680q0 152 23 274q22 103 84 217q163 303 497 306v-162q-105 -6 -187.5 -66t-133.5 -168q-78 -157 -78 -401q0 -330 100 -457q72 -104 191 -104q126 0 198 82q42 48 56 118q17 69 20 289v191h193v-191q-3 -212 16 -289q17 -70 59 -118q69 -82 199 -82q114 0 191 104 q97 129 100 457q0 238 -78 401q-54 109 -136 168.5t-185 65.5v162q328 -3 497 -306q58 -108 82 -217q25 -116 25 -274q0 -376 -162 -571q-64 -80 -139.5 -115t-190.5 -35q-178 0 -276 98q-81 78 -96 189h-5q-21 -114 -96 -189q-103 -98 -276 -98q-117 1 -192.5 36 t-137.5 114q-162 191 -162 571zM635 1720v123h647v-123h-242v-164h-163v164h-242z" />
<glyph unicode="&#x47f;" horiz-adv-x="1515" d="M88 483q0 115 20 198.5t64 158.5q65 108 166.5 163.5t228.5 57.5v-127q-77 -6 -136.5 -50t-96.5 -116q-55 -113 -55 -285q0 -234 71 -323q55 -74 139 -74q79 0 129 57q26 37 37 88q13 60 13 199v139h180v-139q-3 -139 10 -199q11 -53 39 -88q44 -57 129 -57q78 0 139 74 q72 99 72 323q0 165 -55 285q-38 72 -98 116t-136 50v127q125 -2 227 -57.5t168 -163.5q84 -147 84 -357q-3 -274 -131 -415q-54 -59 -116 -83t-150 -24q-124 0 -201 70q-56 47 -69 137h-4q-16 -86 -70 -137q-80 -70 -201 -70q-90 0 -151.5 24t-114.5 83q-131 140 -131 415z M434 1311v123h647v-123h-252v-148h-143v148h-252z" />
<glyph unicode="&#x480;" horiz-adv-x="1474" d="M92 731q0 355 186 550.5t515 195.5q243 0 400 -124.5t183 -342.5h-192q-12 138 -116 221.5t-280 83.5q-243 0 -368 -162q-123 -159 -123 -428q-3 -252 121 -432q127 -177 368 -174q141 0 247.5 75t150.5 205h192v-721h-192v455h-4q-124 -171 -414 -174q-311 0 -494 195 q-180 192 -180 577z" />
<glyph unicode="&#x481;" horiz-adv-x="1122" d="M90 528q0 251 121 402q124 151 375 151q189 0 311 -95.5t145 -270.5h-172q-20 120 -92.5 179.5t-187.5 59.5q-148 0 -229 -109t-80 -317q0 -211 85.5 -326.5t235.5 -115.5q122 0 195.5 79.5t81.5 205.5h172v-693h-181v394h-4q-42 -60 -109 -86.5t-167 -26.5 q-249 0 -377 158q-126 156 -123 411z" />
<glyph unicode="&#x482;" horiz-adv-x="745" d="M51 166l55 94l170 -102l78 137l-170 102l56 95l170 -103l137 238l112 -66l-137 -237l172 -103l-55 -94l-172 102l-78 -137l172 -100l-55 -94l-172 102l-144 -246l-112 66l143 243z" />
<glyph unicode="&#x483;" horiz-adv-x="4" d="M-1063 1188v246h676v122h143v-245h-676v-123h-143z" />
<glyph unicode="&#x484;" horiz-adv-x="4" d="M-858 1554q0 49 37 105q21 29 53 61h152q-44 -44 -62 -69q-37 -56 -37 -97q0 -35 45 -98q35 -46 47.5 -77t10.5 -62q0 -58 -37 -105q-24 -41 -53 -61h-152q34 25 61 70q37 49 37 96q3 35 -45 98q-57 78 -57 139z" />
<glyph unicode="&#x485;" horiz-adv-x="4" d="M-711 1434q79 25 152 28q85 0 130.5 -36t45.5 -95q1 -52 -35.5 -97t-95.5 -71h-123v8q49 18 80 53t31 68q0 30 -20 49t-56 19q-25 0 -76 -19z" />
<glyph unicode="&#x486;" horiz-adv-x="4" d="M-711 1331q2 59 47 94.5t129 36.5q66 0 152 -28l-33 -93q-48 19 -76 19q-35 -1 -55 -19.5t-20 -48.5q0 -32 31.5 -67t78.5 -54v-8h-123q-58 26 -94.5 71t-36.5 97z" />
<glyph unicode="&#x48e;" horiz-adv-x="1308" d="M174 0v1434h584q485 0 485 -412q0 -85 -22 -157t-51 -114.5t-67.5 -75.5t-61 -45.5t-42.5 -19.5l189 -209l-107 -100l-211 236l-36 41q-39 -7 -95 -7h-372v-571h-193zM367 733h325l-147 164l110 96l215 -241q92 30 134.5 95t42.5 171q0 132 -80.5 193t-247.5 61h-352 v-539z" />
<glyph unicode="&#x48f;" horiz-adv-x="1222" d="M147 -379v1419h168v-143h7q121 184 344 184q99 0 182.5 -33.5t148.5 -100.5t101.5 -176t36.5 -251q0 -115 -24 -206t-85 -187l162 -178l-107 -101l-159 181q-99 -70 -252 -70q-26 0 -60 5.5t-89.5 22t-108 59t-84.5 104.5v-529h-181zM315 516q0 -93 20.5 -168t53 -123 t76 -80t86.5 -45.5t86 -13.5q110 0 178 61l-188 207l110 97l162 -183q45 113 45 252q0 203 -82.5 318.5t-234.5 115.5q-34 0 -68.5 -7t-80.5 -34.5t-80 -72t-58.5 -128.5t-24.5 -196z" />
<glyph unicode="&#x490;" horiz-adv-x="1124" d="M174 0v1434h731v323h178l15 -485h-731v-1272h-193z" />
<glyph unicode="&#x491;" horiz-adv-x="886" d="M147 0v1040h545v273h150l18 -400h-532v-913h-181z" />
<glyph unicode="&#x492;" horiz-adv-x="1144" d="M0 643v162h205v629h913v-162h-721v-467h451v-162h-451v-643h-192v643h-205z" />
<glyph unicode="&#x493;" horiz-adv-x="886" d="M-20 451v127h167v462h713v-127h-532v-335h307v-127h-307v-451h-181v451h-167z" />
<glyph unicode="&#x494;" horiz-adv-x="1232" d="M174 0v1434h913v-162h-720v-461q5 0 116 7t156 7q26 0 46.5 -1t60.5 -7t72 -16.5t74.5 -32.5t75.5 -52t66.5 -77t56 -105.5t36.5 -141t14 -179.5q0 -107 -18 -197t-48 -152.5t-72 -111t-87 -78t-97.5 -48t-98.5 -25.5t-93 -7q-97 0 -203 27v162q106 -27 186 -27 q76 0 135.5 25t97 67t62 100t34 119.5t9.5 131.5q0 94 -13.5 168.5t-33 122t-51.5 82.5t-59.5 52t-66.5 26.5t-63.5 11.5t-58.5 2q-102 0 -235 -15v-649h-193z" />
<glyph unicode="&#x495;" horiz-adv-x="935" d="M147 0v1040h713v-127h-532v-286h82q32 0 50.5 -0.5t59 -4.5t67.5 -11.5t66.5 -23.5t66.5 -38.5t57.5 -58.5t48.5 -81t30 -108t12 -139q0 -275 -109 -406t-362 -135v133h45q234 0 234 408q0 53 -4 93.5t-20 89t-43.5 80.5t-78 53.5t-120.5 21.5h-82v-500h-181z" />
<glyph unicode="&#x496;" horiz-adv-x="1978" d="M-8 0l661 768l-633 666h230l584 -631v631h192v-631l584 631h229l-633 -666l523 -606h223l-15 -486h-168v324h-135l-608 715v-715h-192v715l-609 -715h-233z" />
<glyph unicode="&#x497;" horiz-adv-x="1490" d="M-8 0l477 547l-451 493h213l398 -471v471h180v-471l397 471h213l-450 -493l366 -420h148l-15 -397h-151v270h-94l-414 514v-514h-180v514l-414 -514h-223z" />
<glyph unicode="&#x498;" horiz-adv-x="1366" d="M92 440h193q3 -47 14 -87.5t39.5 -85t71 -76t115.5 -52t167 -20.5q101 0 174.5 26t112 69.5t55.5 90t17 98.5q0 40 -7.5 75t-29 72.5t-56.5 63.5t-95.5 43t-139.5 17h-188v162h170q20 0 37 1t48.5 5.5t56 13t53.5 25.5t48 40t32 60t13 82q0 51 -15.5 92t-38.5 66.5 t-57 44.5t-63 28t-64.5 14t-53 6t-37.5 1t-37.5 -1t-55.5 -6.5t-68.5 -15.5t-67 -30.5t-62 -49t-44 -74t-20.5 -102.5h-192q5 86 31 155.5t62 115t87.5 78.5t98 50t104.5 27t96 12.5t82 2.5q239 0 375.5 -101.5t136.5 -300.5q0 -118 -66.5 -204.5t-177.5 -106.5v-4 q301 -69 301 -375q0 -127 -65 -224t-169 -147t-229 -53v-348h-184v346q-132 10 -230 50t-156.5 105t-88 146t-33.5 180z" />
<glyph unicode="&#x499;" horiz-adv-x="1058" d="M66 319h172q0 -98 72 -165.5t204 -67.5q124 0 197 51.5t73 153.5q0 37 -10.5 67.5t-26.5 49.5t-39.5 32.5t-43.5 20.5t-45.5 11t-39.5 4.5t-30 0.5h-154v127h133q217 0 217 162q0 21 -3.5 41t-17.5 48.5t-38 49t-69.5 35t-106.5 14.5q-72 0 -123.5 -20.5t-76.5 -53.5 t-35.5 -64t-10.5 -62h-172q3 64 23.5 115.5t49.5 84.5t69.5 58t77 38t80.5 20.5t71.5 9t56.5 1.5q77 0 139.5 -12.5t104.5 -32t73.5 -47t49 -54.5t28.5 -58t14 -53.5t3 -45.5q0 -180 -180 -227v-6q38 -7 73 -22.5t69.5 -43.5t55.5 -74.5t21 -105.5q0 -63 -18.5 -115t-47 -86 t-67 -60.5t-74 -40.5t-71.5 -22.5t-57 -11t-34 -2.5v-340h-160v338q-68 2 -129.5 23.5t-116 62.5t-89.5 111.5t-41 162.5z" />
<glyph unicode="&#x49a;" horiz-adv-x="1384" d="M174 0v1434h193v-654l645 654h235l-682 -664l574 -608h219l-15 -486h-167v324h-136l-673 748v-748h-193z" />
<glyph unicode="&#x49b;" horiz-adv-x="1062" d="M147 0v1040h181v-454l444 454h211l-487 -483l395 -430h164l-15 -397h-151v270h-94l-467 520v-520h-181z" />
<glyph unicode="&#x49c;" horiz-adv-x="1310" d="M174 0v1434h193v-590h143v286h164v-286l407 590h193l-459 -654l504 -780h-211l-434 682v-328h-164v328h-143v-682h-193z" />
<glyph unicode="&#x49d;" horiz-adv-x="1105" d="M147 0v1040h181v-424h106v246h127v-246l334 424h192l-405 -483l432 -557h-196l-357 489v-286h-127v286h-106v-489h-181z" />
<glyph unicode="&#x49e;" horiz-adv-x="1302" d="M0 1184v127h193v123h192v-123h240v-127h-240v-404l645 654h236l-682 -664l727 -770h-252l-674 748v-748h-192v1184h-193z" />
<glyph unicode="&#x49f;" horiz-adv-x="1017" d="M0 1178v127h164v129h180v-129h432v-127h-432v-592l444 454h211l-487 -483l514 -557h-215l-467 520v-520h-180v1178h-164z" />
<glyph unicode="&#x4a0;" horiz-adv-x="1579" d="M27 1272v162h635v-654l645 654h235l-682 -664l727 -770h-252l-673 748v-748h-193v1272h-442z" />
<glyph unicode="&#x4a1;" horiz-adv-x="1150" d="M27 913v127h450v-454l445 454h211l-488 -483l514 -557h-215l-467 520v-520h-180v913h-270z" />
<glyph unicode="&#x4a2;" horiz-adv-x="1507" d="M174 0v1434h193v-598h720v598h193v-1272h201l-15 -486h-168v324h-211v674h-720v-674h-193z" />
<glyph unicode="&#x4a3;" horiz-adv-x="1210" d="M147 0v1040h181v-428h514v428h180v-913h180l-14 -397h-152v270h-194v485h-514v-485h-181z" />
<glyph unicode="&#x4a4;" horiz-adv-x="2027" d="M174 0v1434h193v-598h720v598h914v-162h-721v-1272h-193v674h-720v-674h-193z" />
<glyph unicode="&#x4a5;" horiz-adv-x="1581" d="M147 0v1040h181v-428h514v428h712v-127h-532v-913h-180v485h-514v-485h-181z" />
<glyph unicode="&#x4a6;" horiz-adv-x="2146" d="M174 0v1434h1106v-623q5 0 116 7t156 7q96 0 177.5 -21.5t156.5 -88.5q168 -150 168 -488q0 -92 -12.5 -176.5t-56.5 -184t-117 -161.5q-136 -111 -328 -111q-97 0 -203 27v162q106 -27 187 -27q165 0 252 119q86 115 86 350q0 31 -3 66t-12.5 95.5t-35 117t-64.5 92.5 q-33 31 -78.5 47t-76.5 18.5t-79 2.5q-91 0 -233 -15v-649h-193v1272h-720v-1272h-193z" />
<glyph unicode="&#x4a7;" horiz-adv-x="1622" d="M147 0v1040h887v-413h82q64 0 108 -3.5t107 -24.5t109 -60q135 -118 135 -377q0 -41 -3.5 -84t-16 -113t-45 -136t-80.5 -110q-61 -57 -138 -76.5t-188 -21.5v133h45q55 0 101.5 30.5t74.5 74.5q57 95 57 303q0 178 -63 256q-77 82 -203 82h-82v-500h-180v913h-526v-913 h-181z" />
<glyph unicode="&#x4a8;" horiz-adv-x="1810" d="M92 725q0 358 209 567q185 185 520 185q28 0 90 -4v-162q-50 4 -73 4q-267 0 -408 -166q-133 -158 -133 -424q0 -281 152 -440q77 -79 182 -122.5t215 -43.5q47 0 112 10q-113 106 -186 256q-84 179 -84 365q1 86 15.5 159t34.5 122t50.5 92.5t56 68.5t58.5 51 q129 90 309 90q54 0 100 -6.5t98 -24t100 -53t87 -88.5q111 -147 111 -391q0 -322 -192 -537q-99 -113 -244 -178q32 -29 102 -65q76 -33 158 -33q116 0 219 63v-172q-94 -53 -215 -53q-159 0 -295 76q-45 27 -95.5 63.5t-64.5 51.5q-103 -29 -233 -29q-68 0 -123 5.5 t-125.5 22t-139.5 54t-132 94.5q-236 216 -236 592zM893 758q0 -165 76 -336q66 -141 178 -248q154 66 237 182q119 159 119 394q0 168 -55 274q-77 147 -240 147q-147 0 -231 -106q-84 -107 -84 -307z" />
<glyph unicode="&#x4a9;" horiz-adv-x="1363" d="M88 530q0 262 154 416q82 82 168 108.5t188 26.5q24 0 78 -4v-129q-38 6 -72 6q-158 0 -242 -118q-83 -111 -83 -304q0 -212 100 -323q46 -54 114 -87.5t150 -33.5q19 0 55 4q-75 85 -118 189q-56 132 -56 272q0 188 84 295q102 131 285 131q194 0 295 -135 q84 -114 84 -305q0 -222 -131 -369q-14 -15 -29.5 -29.5t-29.5 -26t-31 -23t-28.5 -19t-27 -16.5t-23 -12.5t-19.5 -9.5t-13 -7q46 -43 98 -64q44 -20 109 -20q106 0 196 57v-143q-103 -41 -200 -41q-133 0 -228 59q-73 42 -131 100q-66 -14 -147 -14q-110 0 -201.5 30.5 t-175.5 110.5q-172 161 -172 428zM694 571q0 -126 41 -237q46 -113 123 -205q95 45 152 131q71 109 71 272q0 134 -37 205q-53 115 -163 115q-76 0 -136 -70q-51 -68 -51 -211z" />
<glyph unicode="&#x4aa;" horiz-adv-x="1458" d="M92 692q0 377 179 581t497 204q95 0 175.5 -15.5t138.5 -42t104.5 -65t76.5 -80t51 -91.5t32 -96t16 -96h-193q-4 38 -14 74.5t-37.5 84t-69 82t-114.5 59t-166 24.5q-104 0 -186 -34.5t-134.5 -92t-87 -138t-49 -166.5t-14.5 -184q0 -167 57.5 -298t168.5 -207t259 -76 q171 0 284.5 100.5t121.5 255.5h192q-13 -100 -50 -187.5t-98 -159t-153 -116.5t-205 -53v-346h-184v346q-94 5 -180 35t-163 90t-133 143.5t-89 203t-33 261.5z" />
<glyph unicode="&#x4ab;" horiz-adv-x="1122" d="M88 528q0 79 12.5 151t46.5 147.5t87.5 130t143.5 89.5t206 35q106 0 191 -29.5t139 -81t85.5 -116t40.5 -139.5h-172q-11 65 -39 113t-57.5 71.5t-69.5 36.5t-63.5 15.5t-50.5 2.5q-82 0 -143 -33t-96.5 -92t-52.5 -134t-17 -167q0 -91 18.5 -169t55.5 -140t100.5 -97.5 t146.5 -35.5q59 0 107 19t78 48t51 68t30 76t11 74h172q-6 -69 -32 -136.5t-70.5 -128t-116.5 -100t-160 -45.5v-340h-160v340q-106 8 -188.5 57.5t-132.5 127.5t-75.5 175t-25.5 207z" />
<glyph unicode="&#x4ac;" horiz-adv-x="1177" d="M27 1272v162h1124v-162h-465v-1110h201l-15 -486h-167v324h-211v1272h-467z" />
<glyph unicode="&#x4ad;" horiz-adv-x="954" d="M27 913v127h901v-127h-361v-786h181l-15 -397h-151v270h-195v913h-360z" />
<glyph unicode="&#x4ae;" horiz-adv-x="927" d="M-164 1434h230l399 -664l397 664h230l-531 -836v-598h-192v598z" />
<glyph unicode="&#x4af;" horiz-adv-x="1024" d="M14 1040h205l293 -821l293 821h205l-408 -1020v-399h-180v399z" />
<glyph unicode="&#x4b0;" horiz-adv-x="1415" d="M80 1434h229l400 -664l397 664h229l-530 -836v-129h307v-162h-307v-307h-193v307h-307v162h307v129z" />
<glyph unicode="&#x4b1;" horiz-adv-x="1024" d="M14 1040h205l293 -821l293 821h205l-408 -1020v-20h246v-127h-246v-252h-180v252h-246v127h246v20z" />
<glyph unicode="&#x4b2;" horiz-adv-x="1345" d="M0 0l502 733l-475 701h239l359 -564l358 564h240l-475 -701l387 -571h184l-14 -486h-168v324h-136l-376 596l-377 -596h-248z" />
<glyph unicode="&#x4b3;" horiz-adv-x="1058" d="M0 0l393 543l-364 497h200l267 -385l266 385h201l-365 -497l301 -416h152l-15 -397h-151v270h-94l-295 428l-295 -428h-201z" />
<glyph unicode="&#x4b4;" horiz-adv-x="1832" d="M27 1272v162h1124v-162h-465v-1110h727v1272h193v-1272h200l-14 -486h-168v324h-1130v1272h-467z" />
<glyph unicode="&#x4b5;" horiz-adv-x="1460" d="M27 913v127h868v-127h-328v-786h525v913h180v-913h180l-14 -397h-152v270h-899v913h-360z" />
<glyph unicode="&#x4b6;" horiz-adv-x="1355" d="M119 983v451h192v-420q0 -66 15 -110.5t39.5 -71t71 -40.5t95 -18t125.5 -4q120 0 279 14v650h192v-1272h201l-14 -486h-168v324h-211v623q-190 -15 -315 -15q-111 0 -188 9.5t-140 34t-99.5 67t-55.5 107.5t-19 157z" />
<glyph unicode="&#x4b7;" horiz-adv-x="1081" d="M92 692v348h180v-319q0 -27 0.5 -39.5t3 -33t9 -30t17 -23t28 -19.5t42 -13t58.5 -9.5t78 -2.5q41 0 119 4q14 2 43 2h43v483h180v-913h180l-14 -397h-152v270h-194v430q-88 -6 -242 -6q-77 0 -137 8t-99.5 19.5t-67.5 33t-42.5 40.5t-22 51t-9 55t-1.5 61z" />
<glyph unicode="&#x4b8;" horiz-adv-x="1343" d="M119 983v451h192v-420q0 -134 60 -188.5t209 -55.5v287h163v-285q123 3 234 12v650h192v-1434h-192v623q-47 -2 -130 -7t-104 -6v-329h-163v327q-114 -2 -193.5 12.5t-142.5 55t-94 116.5t-31 191z" />
<glyph unicode="&#x4b9;" horiz-adv-x="1060" d="M92 692v348h180v-319v-26.5t1.5 -25t4.5 -26t9 -23.5t15 -22.5t23 -17.5t32 -15t43 -8.5t55 -3.5v203h127v-203q23 2 71 2q53 0 80 2v483h180v-1040h-180v430q-76 -6 -151 -6v-246h-127v246q-73 -2 -130.5 5.5t-95 20.5t-64.5 36t-40.5 44t-21.5 53t-9.5 54t-1.5 55z" />
<glyph unicode="&#x4ba;" horiz-adv-x="1304" d="M147 0v1434h193v-494q177 14 315 14q139 0 228 -15.5t153.5 -57t92.5 -114.5t28 -187v-580h-192v549q0 55 -9 95t-30 66.5t-47 43t-69 25t-85.5 11.5t-106.5 3q-108 0 -278 -15v-778h-193z" />
<glyph unicode="&#x4bb;" horiz-adv-x="1171" d="M147 0v1434h181v-539q71 97 157.5 141.5t198.5 44.5q56 0 103 -11t80 -27.5t59 -44t42 -51t28 -58.5t17 -57t8 -57t3 -46.5v-36.5v-692h-180v637v9v38.5t-1.5 40t-4.5 42.5t-8 40t-13 39t-19.5 34t-28 30.5t-36.5 22.5t-47 16t-59 5q-35 0 -69 -6.5t-78 -31t-75.5 -64 t-54 -113.5t-22.5 -172v-567h-181z" />
<glyph unicode="&#x4bc;" horiz-adv-x="1853" d="M0 950q0 156 86 234q70 64 172 67v-170q-38 -4 -57 -28q-29 -33 -29 -86q0 -48 23 -74q25 -29 77 -29h123q12 146 80.5 277.5t175.5 214.5q162 121 420 121q261 0 418 -125q96 -74 159 -190t86.5 -232.5t20.5 -235.5h-1163q0 -130 44.5 -260.5t133.5 -206.5 q57 -51 139 -79.5t174 -28.5q162 0 291 80q134 86 164 243h199q-29 -136 -98.5 -230.5t-153.5 -148.5q-162 -106 -404 -106q-264 0 -424 123q-75 54 -130.5 133t-84.5 164.5t-42 164t-13 152.5h-111q-138 0 -213 82q-63 68 -63 174zM598 864h948q-12 99 -56.5 192 t-109.5 152q-119 107 -309 107q-185 0 -309 -107q-68 -61 -110.5 -152t-53.5 -192z" />
<glyph unicode="&#x4bd;" horiz-adv-x="1445" d="M0 702q0 121 86 199q10 10 29 22t59 25.5t84 14.5v-127q-40 -3 -70 -29q-36 -33 -36 -94q0 -48 26 -74q29 -33 94 -33h99q5 91 39 179.5t92 152.5q132 143 372 143q255 0 383 -172q56 -78 76 -179t25 -251h-801q0 -84 25.5 -164.5t81.5 -136.5q85 -92 229 -92 q117 0 191 61t92 154h172q-9 -47 -26 -90t-52.5 -90.5t-84.5 -82t-126.5 -57t-173.5 -22.5q-117 0 -211.5 30.5t-173.5 116.5q-64 71 -98.5 171t-34.5 202h-125q-132 0 -195 78q-47 60 -47 145zM557 606h610q-4 148 -65 238q-72 110 -223 110t-234 -90q-41 -44 -64.5 -113.5 t-23.5 -144.5z" />
<glyph unicode="&#x4be;" horiz-adv-x="1853" d="M0 950q0 156 86 234q70 64 172 67v-170q-38 -4 -57 -28q-29 -33 -29 -86q0 -48 23 -74q25 -29 77 -29h123q12 146 80.5 277.5t175.5 214.5q162 121 420 121q261 0 418 -125q96 -74 159 -190t86.5 -232.5t20.5 -235.5h-1163q0 -130 44.5 -260.5t133.5 -206.5 q57 -51 139 -79.5t174 -28.5q162 0 291 80q134 86 164 243h199q-31 -137 -100 -231t-152 -148q-94 -59 -232 -90q-39 -31 -66.5 -82t-27.5 -102t23.5 -86t70.5 -35q46 0 68 34t22 73h152q-5 -94 -70 -164t-182 -70q-119 0 -193.5 57t-74.5 152q0 112 92 207q-118 -1 -225 32 t-185 91q-131 95 -200.5 260.5t-69.5 353.5h-111q-138 0 -213 82q-63 68 -63 174zM598 864h948q-12 99 -56.5 192t-109.5 152q-119 107 -309 107q-185 0 -309 -107q-68 -61 -110.5 -152t-53.5 -192z" />
<glyph unicode="&#x4bf;" horiz-adv-x="1445" d="M0 702q0 121 86 199q10 10 29 22t59 25.5t84 14.5v-127q-40 -3 -70 -29q-36 -33 -36 -94q0 -48 26 -74q29 -33 94 -33h99q5 91 39 179.5t92 152.5q132 143 372 143q255 0 383 -172q56 -78 76 -179t25 -251h-801q0 -84 25.5 -164.5t81.5 -136.5q88 -92 233 -92 q117 0 189 59.5t90 155.5h172q-19 -110 -92 -193.5t-187 -121.5q-48 -42 -78 -97.5t-30 -105.5q0 -42 23 -75.5t63 -33.5q39 0 65 28.5t25 74.5h145q-6 -99 -73.5 -161t-180.5 -62q-109 0 -176.5 58t-67.5 150q0 100 97 197q-121 -7 -219 35.5t-162 111.5 q-64 70 -98.5 170.5t-34.5 202.5h-125q-132 0 -195 78q-47 60 -47 145zM557 606h610q-4 148 -65 238q-72 110 -223 110t-234 -90q-41 -44 -64.5 -113.5t-23.5 -144.5z" />
<glyph unicode="&#x4c0;" horiz-adv-x="475" d="M147 0v1434h181v-1434h-181z" />
<glyph unicode="&#x4c1;" horiz-adv-x="1859" d="M-8 0l661 768l-633 666h230l584 -631v631h192v-631l584 631h229l-633 -666l662 -768h-234l-608 715v-715h-192v715l-609 -715h-233zM555 1782h160q1 -78 61 -125t154 -47q60 0 104 18t66 47t32 54.5t13 52.5h160q-8 -39 -21 -74.5t-41.5 -76t-67.5 -69t-102.5 -48 t-142.5 -19.5t-142.5 19.5t-102.5 48t-67.5 69t-41.5 76t-21 74.5z" />
<glyph unicode="&#x4c2;" horiz-adv-x="1437" d="M-8 0l477 547l-451 493h213l398 -471v471h180v-471l397 471h213l-450 -493l477 -547h-223l-414 514v-514h-180v514l-414 -514h-223zM367 1434h151q5 -68 55 -115t146 -47t146 47t55 115h151q-5 -36 -18 -70.5t-40.5 -72t-65 -65t-97 -45.5t-131.5 -18t-131.5 18t-97 45.5 t-65 65t-40.5 72t-18 70.5z" />
<glyph unicode="&#x4c3;" horiz-adv-x="1357" d="M174 0v1434h193v-654l645 654h235l-682 -664l609 -643q48 0 93 -13t85 -40t64 -75t24 -112q0 -291 -355 -297v127q29 0 58.5 7t61 22.5t51.5 49t20 79.5q0 56 -33.5 90.5t-89.5 34.5h-113l-673 748v-748h-193z" />
<glyph unicode="&#x4c4;" horiz-adv-x="1075" d="M147 0v1040h181v-454l444 454h211l-487 -483l397 -430q38 0 76 -10.5t78 -35t65 -74.5t25 -120q0 -69 -20.5 -122t-52.5 -85.5t-77 -53t-89 -28.5t-93 -8v127q27 0 56 7t60.5 22.5t51.5 49t20 79.5q0 56 -32.5 90.5t-88.5 34.5h-77l-467 520v-520h-181z" />
<glyph unicode="&#x4c7;" horiz-adv-x="1464" d="M174 0v1434h193v-598h720v598h193v-1307q48 0 93 -13t85 -40t64 -75t24 -112q0 -291 -354 -297v127q22 0 45 3.5t50 14.5t47.5 27.5t34 46t13.5 66.5q0 56 -33 90.5t-89 34.5h-173v674h-720v-674h-193z" />
<glyph unicode="&#x4c8;" horiz-adv-x="1204" d="M147 0v1040h181v-428h514v428h180v-913q38 0 76 -10.5t78 -35t65 -74.5t25 -120q0 -69 -20.5 -122t-52.5 -85.5t-77 -53t-89 -28.5t-93 -8v127q27 0 56 7t60.5 22.5t51.5 49t20 79.5q0 56 -32.5 90.5t-88.5 34.5h-159v485h-514v-485h-181z" />
<glyph unicode="&#x4cb;" horiz-adv-x="1302" d="M119 983v451h192v-420q0 -66 15 -110.5t39.5 -71t71 -40.5t95 -18t125.5 -4q120 0 279 14v650h192v-1434h-210v-324h-168l-15 486h201v461q-190 -15 -315 -15q-111 0 -188 9.5t-140 34t-99.5 67t-55.5 107.5t-19 157z" />
<glyph unicode="&#x4cc;" horiz-adv-x="1040" d="M92 692v348h180v-319q0 -27 0.5 -39.5t3 -33t9 -30t17 -23t28 -19.5t42 -13t58.5 -9.5t78 -2.5q41 0 119 4q14 2 43 2h43v483h180v-1040h-195v-270h-151l-15 397h181v303q-88 -6 -242 -6q-77 0 -137 8t-99.5 19.5t-67.5 33t-42.5 40.5t-22 51t-9 55t-1.5 61z" />
<glyph unicode="&#x4cd;" horiz-adv-x="1832" d="M174 0v1434h289l448 -1180l449 1180h289v-1307q48 0 93 -13t85 -40t64 -75t24 -112q0 -291 -354 -297v127q22 0 45 3.5t50 14.5t47.5 27.5t34 46t13.5 66.5q0 56 -33.5 90.5t-89.5 34.5h-172v1149l4 55h-6l-465 -1204h-155l-467 1204h-5l5 -55v-1149h-193z" />
<glyph unicode="&#x4ce;" horiz-adv-x="1533" d="M147 0v1040h248l355 -845l354 845h248v-913q93 0 159 -51q84 -65 84 -195q0 -167 -116 -239q-42 -27 -103.5 -39.5t-111.5 -12.5v127q27 0 56 7t60.5 22.5t51.5 49t20 79.5q0 56 -32.5 90.5t-88.5 34.5h-160v780l7 56h-7l-352 -836h-139l-352 836h-4l4 -56v-780h-181z " />
<glyph unicode="&#x4d0;" horiz-adv-x="1273" d="M-8 0l543 1434h204l543 -1434h-207l-135 371h-606l-135 -371h-207zM262 1782h160q1 -78 61 -125t154 -47q60 0 104 18t66 47t32 54.5t13 52.5h160q-8 -39 -21 -74.5t-41.5 -76t-67.5 -69t-102.5 -48t-142.5 -19.5t-142.5 19.5t-102.5 48t-67.5 69t-41.5 76t-21 74.5z M387 532h500l-250 707z" />
<glyph unicode="&#x4d1;" horiz-adv-x="1132" d="M76 272q0 72 21.5 123t76.5 94.5t156.5 71t255.5 41.5q115 7 144 18q44 16 54 70q4 22 4 55q0 15 -1 27.5t-5.5 35t-13 40.5t-26 39t-41 34.5t-61.5 23t-85 9.5q-24 0 -44 -1.5t-56 -7.5t-63 -20.5t-53.5 -37.5t-40.5 -62.5t-13 -91.5h-172q0 46 10 90t40 92.5t76.5 83.5 t128 58.5t187.5 23.5q58 0 109 -7t110 -29.5t101 -59t69 -102t25 -152.5l-11 -481q0 -32 0.5 -45t6 -33.5t16.5 -28t32 -13t54 -3.5v-127q-33 -8 -82 -8q-86 0 -128 28.5t-58 122.5q-51 -93 -147 -138.5t-210 -45.5q-171 0 -268.5 77t-97.5 236zM213 1434h152 q5 -69 54.5 -115.5t145.5 -46.5t146 47t55 115h152q-5 -36 -18 -70.5t-40.5 -72t-65.5 -65t-97.5 -45.5t-131.5 -18t-131.5 18t-97 45.5t-65 65t-40.5 72t-18 70.5zM262 279q0 -90 55.5 -141.5t145.5 -51.5q46 0 86.5 9t82.5 34t73 64t52.5 103.5t26.5 147.5l4 88 q-19 -15 -44 -24t-45.5 -11.5t-65 -7t-74.5 -8.5q-134 -23 -164 -31q-98 -29 -123 -101q-10 -30 -10 -70z" />
<glyph unicode="&#x4d2;" horiz-adv-x="1273" d="M-8 0l543 1434h204l543 -1434h-207l-135 371h-606l-135 -371h-207zM319 1581v162h193v-162h-193zM387 532h500l-250 707zM762 1581v162h192v-162h-192z" />
<glyph unicode="&#x4d3;" horiz-adv-x="1132" d="M76 272q0 72 21.5 123t76.5 94.5t156.5 71t255.5 41.5q115 7 144 18q44 16 54 70q4 22 4 55q0 15 -1 27.5t-5.5 35t-13 40.5t-26 39t-41 34.5t-61.5 23t-85 9.5q-24 0 -44 -1.5t-56 -7.5t-63 -20.5t-53.5 -37.5t-40.5 -62.5t-13 -91.5h-172q0 46 10 90t40 92.5t76.5 83.5 t128 58.5t187.5 23.5q58 0 109 -7t110 -29.5t101 -59t69 -102t25 -152.5l-11 -481q0 -32 0.5 -45t6 -33.5t16.5 -28t32 -13t54 -3.5v-127q-33 -8 -82 -8q-86 0 -128 28.5t-58 122.5q-51 -93 -147 -138.5t-210 -45.5q-171 0 -268.5 77t-97.5 236zM262 279q0 -90 55.5 -141.5 t145.5 -51.5q46 0 86.5 9t82.5 34t73 64t52.5 103.5t26.5 147.5l4 88q-19 -15 -44 -24t-45.5 -11.5t-65 -7t-74.5 -8.5q-134 -23 -164 -31q-98 -29 -123 -101q-10 -30 -10 -70zM272 1245v189h181v-189h-181zM678 1245v189h180v-189h-180z" />
<glyph unicode="&#x4d4;" horiz-adv-x="2039" d="M-8 0l799 1434h1194v-162h-830v-451h750v-162h-750v-497h850v-162h-1042v371h-541l-203 -371h-227zM508 532h455v740h-56z" />
<glyph unicode="&#x4d5;" horiz-adv-x="1871" d="M76 272q0 56 13 99t47 83.5t91 68.5t148.5 48.5t216.5 30.5q118 7 147 18q46 16 56 69q4 22 4 56q0 23 -2 41.5t-15 52.5t-35.5 56.5t-69.5 40.5t-112 18q-24 0 -44 -1.5t-56 -7.5t-63 -20.5t-53.5 -37.5t-40.5 -62.5t-13 -91.5h-172q-2 71 23.5 132.5t77.5 110.5t139 77 t200 28q286 0 357 -176q115 176 374 176q45 0 86 -4.5t92 -19.5t93.5 -39t84 -66.5t70 -98.5t46.5 -139t18 -184v-51h-805q0 -51 9 -102t33 -104.5t59.5 -94t94.5 -66.5t132 -26q224 0 286 215h172q-9 -48 -26.5 -92.5t-53 -91t-83 -80.5t-121 -56t-162.5 -22 q-49 0 -85.5 2.5t-90.5 15.5t-95.5 35.5t-86.5 66.5t-78 105q-39 -69 -89 -116t-105.5 -69.5t-105 -31t-106.5 -8.5q-35 0 -62 1.5t-71.5 8t-77.5 18t-71 35t-62 55.5t-40.5 82t-16.5 113zM262 279q0 -49 19 -90.5t68.5 -72t123.5 -30.5q78 0 138 26t94.5 64.5t56.5 89.5 t29.5 94t7.5 84v88q-20 -15 -46 -23.5t-45 -11.5t-66 -7.5t-77 -8.5q-13 -2 -47 -7.5t-47 -8t-41.5 -8.5t-41 -10.5t-34.5 -13.5t-32 -18t-24 -23t-20 -30t-11 -37t-5 -46zM979 606h618q2 45 -4.5 90t-27 92.5t-52.5 83.5t-87 59t-126 23q-107 0 -181.5 -51t-107 -127.5 t-32.5 -169.5z" />
<glyph unicode="&#x4d6;" horiz-adv-x="1253" d="M174 0v1434h1022v-162h-829v-451h751v-162h-751v-497h852v-162h-1045zM252 1782h160q1 -78 61 -125t154 -47q60 0 104 18t66 47t32 54.5t13 52.5h159q-8 -40 -21 -74.5t-41.5 -75.5t-67 -69.5t-102 -48t-142.5 -19.5t-142.5 19.5t-102.5 48t-67.5 69t-41.5 76t-21 74.5z " />
<glyph unicode="&#x4d7;" horiz-adv-x="1167" d="M88 516q0 40 2.5 77t14.5 96.5t31.5 109.5t58 104t90 91.5t132 62t179.5 24.5q86 0 157 -19.5t119 -50t84.5 -77t58 -92.5t35.5 -105t19.5 -105.5t7.5 -101.5q0 -8 1 -25.5t1 -25.5h-800q0 -70 18.5 -137t56 -125.5t103.5 -94.5t151 -36q123 0 196.5 61t92.5 154h172 q-9 -48 -27 -92.5t-53.5 -91t-84 -80.5t-123.5 -56t-167 -22q-106 0 -191.5 27t-139 66.5t-93 97t-58.5 107t-30 109t-12.5 89t-1.5 61.5zM231 1434h152q5 -68 55 -115t146 -47t145.5 46.5t54.5 115.5h152q-5 -36 -18 -70.5t-40.5 -72t-65 -65t-97 -45.5t-131.5 -18 t-131.5 18t-97.5 45.5t-65.5 65t-40.5 72t-18 70.5zM279 606h610q-2 47 -9.5 90t-27.5 92t-50 84t-82 58.5t-120 23.5q-76 0 -135 -24t-93 -60.5t-56 -85t-29.5 -91.5t-7.5 -87z" />
<glyph unicode="&#x4d8;" horiz-adv-x="1564" d="M98 739h1164q-2 141 -38.5 249.5t-88 168.5t-119.5 97.5t-123.5 49t-110.5 11.5q-25 0 -50.5 -1.5t-69.5 -9t-82.5 -19.5t-83 -36.5t-79 -57.5t-62.5 -85t-40 -115h-198q32 160 127.5 271t231.5 163t306 52q151 0 276 -49t216 -142.5t141.5 -238.5t50.5 -330 q0 -121 -21 -223.5t-54.5 -175t-82.5 -131.5t-97.5 -96t-107.5 -64t-104 -40t-95.5 -20.5t-74 -8.5t-47.5 -1q-114 0 -211.5 27t-167 72t-124.5 108.5t-89 132.5t-56 147.5t-30 150.5t-6 144zM307 569q4 -37 12.5 -75t26.5 -83t42.5 -85.5t62.5 -79t84 -66t109.5 -44.5 t137.5 -17q110 0 199.5 38.5t146 103.5t89 143.5t38.5 164.5h-948z" />
<glyph unicode="&#x4d9;" horiz-adv-x="1167" d="M88 561h801q0 49 -9 99t-32 104t-58 95t-93 68t-130 27q-101 0 -186.5 -57.5t-101.5 -157.5h-173q14 69 44 124.5t66 90.5t82 60.5t83.5 38t80 19.5t62 8t37.5 1q104 0 188 -26.5t137 -65t92 -95.5t57.5 -106t29.5 -109t12.5 -90.5t1.5 -64.5q0 -113 -24.5 -205 t-61.5 -149.5t-89.5 -100t-98 -63t-99.5 -32t-81 -13.5t-54 -2q-113 0 -199 32.5t-140 87t-87.5 133.5t-46 163.5t-10.5 185.5zM276 434q2 -69 17 -125t36 -91.5t50.5 -61.5t55 -39t55.5 -20.5t46 -9t31 -1.5q77 0 136 24.5t92.5 60t55 85.5t29 91t9.5 87h-613z" />
<glyph unicode="&#x4da;" horiz-adv-x="1564" d="M98 739h1164q-2 141 -38.5 249.5t-88 168.5t-119.5 97.5t-123.5 49t-110.5 11.5q-25 0 -50.5 -1.5t-69.5 -9t-82.5 -19.5t-83 -36.5t-79 -57.5t-62.5 -85t-40 -115h-198q32 160 127.5 271t231.5 163t306 52q151 0 276 -49t216 -142.5t141.5 -238.5t50.5 -330 q0 -121 -21 -223.5t-54.5 -175t-82.5 -131.5t-97.5 -96t-107.5 -64t-104 -40t-95.5 -20.5t-74 -8.5t-47.5 -1q-114 0 -211.5 27t-167 72t-124.5 108.5t-89 132.5t-56 147.5t-30 150.5t-6 144zM307 569q4 -37 12.5 -75t26.5 -83t42.5 -85.5t62.5 -79t84 -66t109.5 -44.5 t137.5 -17q110 0 199.5 38.5t146 103.5t89 143.5t38.5 164.5h-948zM465 1581v162h192v-162h-192zM907 1581v162h193v-162h-193z" />
<glyph unicode="&#x4db;" horiz-adv-x="1167" d="M88 561h801q0 49 -9 99t-32 104t-58 95t-93 68t-130 27q-101 0 -186.5 -57.5t-101.5 -157.5h-173q14 69 44 124.5t66 90.5t82 60.5t83.5 38t80 19.5t62 8t37.5 1q104 0 188 -26.5t137 -65t92 -95.5t57.5 -106t29.5 -109t12.5 -90.5t1.5 -64.5q0 -113 -24.5 -205 t-61.5 -149.5t-89.5 -100t-98 -63t-99.5 -32t-81 -13.5t-54 -2q-113 0 -199 32.5t-140 87t-87.5 133.5t-46 163.5t-10.5 185.5zM276 434q2 -69 17 -125t36 -91.5t50.5 -61.5t55 -39t55.5 -20.5t46 -9t31 -1.5q77 0 136 24.5t92.5 60t55 85.5t29 91t9.5 87h-613zM291 1245 v189h180v-189h-180zM696 1245v189h181v-189h-181z" />
<glyph unicode="&#x4dc;" horiz-adv-x="1859" d="M-8 0l661 768l-633 666h230l584 -631v631h192v-631l584 631h229l-633 -666l662 -768h-234l-608 715v-715h-192v715l-609 -715h-233zM612 1581v162h193v-162h-193zM1055 1581v162h192v-162h-192z" />
<glyph unicode="&#x4dd;" horiz-adv-x="1437" d="M-8 0l477 547l-451 493h213l398 -471v471h180v-471l397 471h213l-450 -493l477 -547h-223l-414 514v-514h-180v514l-414 -514h-223zM426 1245v189h180v-189h-180zM831 1245v189h181v-189h-181z" />
<glyph unicode="&#x4de;" horiz-adv-x="1366" d="M92 440h193q3 -47 14 -87.5t39.5 -85t71 -76t115.5 -52t167 -20.5q101 0 174.5 26t112 69.5t55.5 90t17 98.5q0 40 -7.5 75t-29 72.5t-56.5 63.5t-95.5 43t-139.5 17h-188v162h170q20 0 37 1t48.5 5.5t56 13t53.5 25.5t48 40t32 60t13 82q0 51 -15.5 92t-38.5 66.5 t-57 44.5t-63 28t-64.5 14t-53 6t-37.5 1t-37.5 -1t-55.5 -6.5t-68.5 -15.5t-67 -30.5t-62 -49t-44 -74t-20.5 -102.5h-192q5 86 31 155.5t62 115t87.5 78.5t98 50t104.5 27t96 12.5t82 2.5q239 0 375.5 -101.5t136.5 -300.5q0 -118 -66.5 -204.5t-177.5 -106.5v-4 q301 -69 301 -375q0 -62 -14 -118t-52 -114t-96.5 -100.5t-156 -69t-223.5 -26.5q-143 0 -252 29.5t-174.5 75.5t-108 112t-59 129.5t-19.5 136.5zM365 1581v162h192v-162h-192zM807 1581v162h192v-162h-192z" />
<glyph unicode="&#x4df;" horiz-adv-x="1058" d="M66 319h172q0 -98 72 -165.5t204 -67.5q124 0 197 51.5t73 153.5q0 37 -10.5 67.5t-26.5 49.5t-39.5 32.5t-43.5 20.5t-45.5 11t-39.5 4.5t-30 0.5h-154v127h133q217 0 217 162q0 21 -3.5 41t-17.5 48.5t-38 49t-69.5 35t-106.5 14.5q-72 0 -123.5 -20.5t-76.5 -53.5 t-35.5 -64t-10.5 -62h-172q3 64 23.5 115.5t49.5 84.5t69.5 58t77 38t80.5 20.5t71.5 9t56.5 1.5q77 0 139.5 -12.5t104.5 -32t73.5 -47t49 -54.5t28.5 -58t14 -53.5t3 -45.5q0 -180 -180 -227v-6q90 -14 154.5 -81.5t64.5 -184.5q0 -30 -5 -59t-18.5 -61.5t-35 -60.5 t-56.5 -54t-79.5 -44.5t-108.5 -29.5t-140 -11q-114 0 -200.5 27t-133.5 65.5t-77 91.5t-39.5 93t-11.5 83zM236 1245v189h180v-189h-180zM641 1245v189h180v-189h-180z" />
<glyph unicode="&#x4e0;" horiz-adv-x="1351" d="M82 455h192q-8 -123 76 -211q55 -61 144.5 -93t189.5 -32q153 0 240 69q112 92 112 258q0 143 -92 228q-85 74 -258 74q-108 0 -201 -27l-71 123l501 428h-731v162h975v-162l-430 -363h41q106 0 193.5 -29.5t144.5 -80.5q133 -123 133 -338q0 -278 -207 -414 q-79 -53 -165.5 -71.5t-194.5 -18.5q-128 0 -231 23t-191 96q-159 133 -170 379z" />
<glyph unicode="&#x4e1;" horiz-adv-x="1064" d="M45 -53h172q10 -88 59 -140q67 -75 201 -75q118 0 193 67q94 84 94 254q0 66 -19.5 127t-56.5 101q-66 73 -207 73q-47 0 -96 -12l-61 109l421 462h-643v127h832v-127l-393 -432q86 4 166.5 -23.5t134.5 -78.5t83 -133.5t29 -182.5q0 -126 -47 -221.5t-131 -154.5 q-116 -82 -299 -82q-230 0 -342 125q-82 87 -90 217z" />
<glyph unicode="&#x4e2;" horiz-adv-x="1497" d="M174 0v1434h193v-1153l763 1153h193v-1434h-193v1161l-763 -1161h-193zM424 1581v123h647v-123h-323h-324z" />
<glyph unicode="&#x4e3;" horiz-adv-x="1218" d="M147 0v1040h181v-829l542 829h201v-1040h-180v831l-541 -831h-203zM285 1255v123h647v-123h-324h-323z" />
<glyph unicode="&#x4e4;" horiz-adv-x="1497" d="M174 0v1434h193v-1153l763 1153h193v-1434h-193v1161l-763 -1161h-193zM430 1581v162h193v-162h-193zM872 1581v162h193v-162h-193z" />
<glyph unicode="&#x4e5;" horiz-adv-x="1218" d="M147 0v1040h181v-829l542 829h201v-1040h-180v831l-541 -831h-203zM315 1245v189h181v-189h-181zM721 1245v189h180v-189h-180z" />
<glyph unicode="&#x4e6;" horiz-adv-x="1552" d="M92 717q0 185 50.5 330t142 238.5t216 142.5t275.5 49q100 0 193 -22.5t184 -77.5t158 -139.5t108 -218t41 -302.5q0 -121 -21 -223.5t-54.5 -175t-82.5 -131.5t-97.5 -96t-107.5 -64t-104 -40t-95.5 -20.5t-74 -8.5t-47.5 -1q-25 0 -49 1t-75 8.5t-95.5 20.5t-103.5 40 t-107 64t-97 96t-82 131.5t-54 175t-21 223.5zM297 717q0 -54 5 -106t18.5 -113t35.5 -113.5t59.5 -102.5t86 -85t119 -56.5t155.5 -21.5q30 0 58 2.5t79 15.5t93.5 35t90.5 67t81 106t55 157t22 215q0 129 -29 236.5t-86.5 189t-150 127t-213.5 45.5q-90 0 -164 -25.5 t-122.5 -65.5t-85.5 -96t-56.5 -109.5t-31.5 -115t-15.5 -103.5t-3.5 -83zM459 1581v162h192v-162h-192zM901 1581v162h193v-162h-193z" />
<glyph unicode="&#x4e7;" horiz-adv-x="1200" d="M88 520q0 86 16.5 164.5t55 152t96 127t146 85.5t198.5 32t198.5 -32t146 -85.5t96 -127t55 -152t16.5 -164.5t-16.5 -164.5t-55 -152t-96 -127t-146 -85.5t-198.5 -32t-198.5 32t-146 85.5t-96 127t-55 152t-16.5 164.5zM279 522q0 -86 14 -155.5t35 -114t52.5 -77.5 t59.5 -49.5t62 -26t54.5 -11.5t43.5 -2t43.5 2t55 11.5t62.5 26t59 49.5t52.5 77.5t35.5 114t14 155.5t-14 155.5t-35.5 114t-52.5 77.5t-59 49.5t-62.5 26t-55 11.5t-43.5 2t-43.5 -2t-54.5 -11.5t-62 -26t-59.5 -49.5t-52.5 -77.5t-35 -114t-14 -155.5zM307 1245v189h180 v-189h-180zM713 1245v189h180v-189h-180z" />
<glyph unicode="&#x4e8;" horiz-adv-x="1552" d="M92 717q0 185 50.5 330t142 238.5t216 142.5t275.5 49q100 0 193 -22.5t184 -77.5t158 -139.5t108 -218t41 -302.5q0 -121 -21 -223.5t-54.5 -175t-82.5 -131.5t-97.5 -96t-107.5 -64t-104 -40t-95.5 -20.5t-74 -8.5t-47.5 -1q-25 0 -49 1t-75 8.5t-95.5 20.5t-103.5 40 t-107 64t-97 96t-82 131.5t-54 175t-21 223.5zM299 639q0 -29 3.5 -64t16 -87.5t32 -100.5t56.5 -98t85 -86.5t121.5 -60t162.5 -23.5q109 0 195 36t136.5 90t84 126.5t46.5 137t15 130.5h-954zM301 801h952q-2 35 -7 70t-19 88t-34.5 99t-57.5 95t-84.5 83.5t-118.5 56.5 t-156 22q-105 0 -188 -34.5t-133.5 -86.5t-85 -123.5t-49 -135.5t-19.5 -134z" />
<glyph unicode="&#x4e9;" horiz-adv-x="1165" d="M72 522q0 121 31 221.5t92 176.5t160 118.5t227 42.5t227 -42.5t160.5 -119t93 -177t31.5 -220.5q0 -114 -26.5 -206.5t-65 -150t-94 -99.5t-102 -62t-101 -31t-78 -12.5t-45.5 -1.5q-128 0 -227 43.5t-160 120.5t-92 178t-31 221zM264 463q2 -45 10 -89t29.5 -98.5 t54.5 -94.5t91 -67.5t133 -27.5q64 0 115.5 18.5t84.5 51.5t56.5 70.5t36.5 83t18.5 81t7.5 72.5h-637zM264 590h637q-3 52 -13 99t-33.5 97t-57.5 86t-89.5 59t-125.5 23q-69 0 -124 -23t-89 -59t-57.5 -86t-34 -97t-13.5 -99z" />
<glyph unicode="&#x4ea;" horiz-adv-x="1552" d="M92 717q0 185 50.5 330t142 238.5t216 142.5t275.5 49q100 0 193 -22.5t184 -77.5t158 -139.5t108 -218t41 -302.5q0 -121 -21 -223.5t-54.5 -175t-82.5 -131.5t-97.5 -96t-107.5 -64t-104 -40t-95.5 -20.5t-74 -8.5t-47.5 -1q-25 0 -49 1t-75 8.5t-95.5 20.5t-103.5 40 t-107 64t-97 96t-82 131.5t-54 175t-21 223.5zM299 639q0 -29 3.5 -64t16 -87.5t32 -100.5t56.5 -98t85 -86.5t121.5 -60t162.5 -23.5q109 0 195 36t136.5 90t84 126.5t46.5 137t15 130.5h-954zM301 801h952q-2 35 -7 70t-19 88t-34.5 99t-57.5 95t-84.5 83.5t-118.5 56.5 t-156 22q-105 0 -188 -34.5t-133.5 -86.5t-85 -123.5t-49 -135.5t-19.5 -134zM459 1581v162h192v-162h-192zM901 1581v162h193v-162h-193z" />
<glyph unicode="&#x4eb;" horiz-adv-x="1165" d="M72 522q0 121 31 221.5t92 176.5t160 118.5t227 42.5t227 -42.5t160.5 -119t93 -177t31.5 -220.5q0 -114 -26.5 -206.5t-65 -150t-94 -99.5t-102 -62t-101 -31t-78 -12.5t-45.5 -1.5q-128 0 -227 43.5t-160 120.5t-92 178t-31 221zM264 463q2 -45 10 -89t29.5 -98.5 t54.5 -94.5t91 -67.5t133 -27.5q64 0 115.5 18.5t84.5 51.5t56.5 70.5t36.5 83t18.5 81t7.5 72.5h-637zM264 590h637q-3 52 -13 99t-33.5 97t-57.5 86t-89.5 59t-125.5 23q-69 0 -124 -23t-89 -59t-57.5 -86t-34 -97t-13.5 -99zM289 1245v189h180v-189h-180zM694 1245v189 h180v-189h-180z" />
<glyph unicode="&#x4ee;" horiz-adv-x="1204" d="M18 1434h236l412 -863l344 863h202l-485 -1178q-24 -57 -51 -101t-51 -73t-54 -49t-52.5 -30t-54.5 -15.5t-51 -6.5t-51 -1q-85 0 -159 20v168q68 -23 135 -23q29 0 49 3t47 15t47.5 33.5t42.5 62t39 97.5zM279 1581v123h647v-123h-324h-323z" />
<glyph unicode="&#x4ef;" horiz-adv-x="1019" d="M14 1040h215l334 -841l277 841h180l-414 -1163l-6 -18q-14 -42 -23 -65.5t-31.5 -63t-47.5 -61t-68 -39t-96 -17.5q-99 0 -148 10v133q69 -10 90 -10q36 0 62.5 12t44.5 38t28.5 50t24.5 64q3 8 4 12l25 78zM186 1255v123h648v-123h-324h-324z" />
<glyph unicode="&#x4f0;" horiz-adv-x="1204" d="M18 1434h236l412 -863l344 863h202l-485 -1178q-24 -57 -51 -101t-51 -73t-54 -49t-52.5 -30t-54.5 -15.5t-51 -6.5t-51 -1q-85 0 -159 20v168q68 -23 135 -23q29 0 49 3t47 15t47.5 33.5t42.5 62t39 97.5zM285 1581v162h192v-162h-192zM727 1581v162h193v-162h-193z" />
<glyph unicode="&#x4f1;" horiz-adv-x="1019" d="M14 1040h215l334 -841l277 841h180l-414 -1163l-6 -18q-14 -42 -23 -65.5t-31.5 -63t-47.5 -61t-68 -39t-96 -17.5q-99 0 -148 10v133q69 -10 90 -10q36 0 62.5 12t44.5 38t28.5 50t24.5 64q3 8 4 12l25 78zM217 1245v189h180v-189h-180zM623 1245v189h180v-189h-180z " />
<glyph unicode="&#x4f2;" horiz-adv-x="1204" d="M18 1434h236l412 -863l344 863h202l-485 -1178q-24 -57 -51 -101t-51 -73t-54 -49t-52.5 -30t-54.5 -15.5t-51 -6.5t-51 -1q-85 0 -159 20v168q68 -23 135 -23q29 0 49 3t47 15t47.5 33.5t42.5 62t39 97.5zM264 1556l144 287h217l-197 -287h-164zM578 1556l143 287h217 l-197 -287h-163z" />
<glyph unicode="&#x4f3;" horiz-adv-x="1019" d="M14 1040h215l334 -841l277 841h180l-414 -1163l-6 -18q-14 -42 -23 -65.5t-31.5 -63t-47.5 -61t-68 -39t-96 -17.5q-99 0 -148 10v133q69 -10 90 -10q36 0 62.5 12t44.5 38t28.5 50t24.5 64q3 8 4 12l25 78zM172 1163l143 271h217l-196 -271h-164zM485 1163l144 271h217 l-197 -271h-164z" />
<glyph unicode="&#x4f4;" horiz-adv-x="1302" d="M119 983v451h192v-420q0 -66 15 -110.5t39.5 -71t71 -40.5t95 -18t125.5 -4q120 0 279 14v650h192v-1434h-192v623q-190 -15 -315 -15q-111 0 -188 9.5t-140 34t-99.5 67t-55.5 107.5t-19 157zM334 1581v162h192v-162h-192zM776 1581v162h193v-162h-193z" />
<glyph unicode="&#x4f5;" horiz-adv-x="1040" d="M92 692v348h180v-319q0 -27 0.5 -39.5t3 -33t9 -30t17 -23t28 -19.5t42 -13t58.5 -9.5t78 -2.5q41 0 119 4q14 2 43 2h43v483h180v-1040h-180v430q-88 -6 -242 -6q-77 0 -137 8t-99.5 19.5t-67.5 33t-42.5 40.5t-22 51t-9 55t-1.5 61zM227 1245v189h181v-189h-181z M633 1245v189h180v-189h-180z" />
<glyph unicode="&#x4f8;" horiz-adv-x="1757" d="M174 0v1434h193v-584h413q219 0 340 -113t121 -317q0 -107 -34 -187.5t-83 -123.5t-116.5 -69t-119.5 -33t-108 -7h-606zM367 162h387q36 0 70.5 5.5t76 23t72 45t51 77t20.5 113.5q0 43 -9 78t-21.5 60.5t-36 46t-43.5 33t-52.5 21.5t-54 13.5t-58 6.5t-55.5 2.5 t-53 0.5h-10h-284v-526zM561 1581v162h193v-162h-193zM1004 1581v162h192v-162h-192zM1391 0v1434h192v-1434h-192z" />
<glyph unicode="&#x4f9;" horiz-adv-x="1462" d="M147 0v1040h181v-411h262q39 0 69.5 -1.5t76 -8.5t80.5 -19.5t72.5 -36.5t62.5 -56.5t41 -82.5t16 -113t-17.5 -115.5t-56 -98t-111 -71.5t-172.5 -26h-504zM328 127h252q31 0 59.5 3.5t63 16t59.5 33t42 57.5t17 87q0 26 -4 48.5t-14 39t-19 30t-26.5 23t-30 16 t-35 10.5t-35.5 6.5t-38 3.5t-36 1h-36h-219v-375zM438 1245v189h180v-189h-180zM844 1245v189h180v-189h-180zM1135 0v1040h180v-1040h-180z" />
<glyph unicode="&#x2000;" horiz-adv-x="983" />
<glyph unicode="&#x2001;" horiz-adv-x="1966" />
<glyph unicode="&#x2002;" horiz-adv-x="983" />
<glyph unicode="&#x2003;" horiz-adv-x="1966" />
<glyph unicode="&#x2004;" horiz-adv-x="655" />
<glyph unicode="&#x2005;" horiz-adv-x="491" />
<glyph unicode="&#x2006;" horiz-adv-x="327" />
<glyph unicode="&#x2007;" horiz-adv-x="327" />
<glyph unicode="&#x2008;" horiz-adv-x="245" />
<glyph unicode="&#x2009;" horiz-adv-x="393" />
<glyph unicode="&#x200a;" horiz-adv-x="109" />
<glyph unicode="&#x2010;" horiz-adv-x="864" d="M162 461v174h540v-174h-540z" />
<glyph unicode="&#x2011;" horiz-adv-x="864" d="M162 461v174h540v-174h-540z" />
<glyph unicode="&#x2012;" horiz-adv-x="864" d="M162 461v174h540v-174h-540z" />
<glyph unicode="&#x2013;" horiz-adv-x="1228" d="M102 481v127h1024v-127h-1024z" />
<glyph unicode="&#x2014;" horiz-adv-x="2015" d="M102 481v127h1811v-127h-1811z" />
<glyph unicode="&#x2018;" horiz-adv-x="636" d="M217 946v287q0 58 20 103.5t52.5 72.5t64.5 42t66 22v-113q-43 -4 -73 -42t-30 -85v-64h103v-223h-203z" />
<glyph unicode="&#x2019;" horiz-adv-x="636" d="M217 907v113q42 4 72 41.5t30 85.5v63h-102v224h203v-287q0 -58 -20 -103.5t-52.5 -72.5t-64.5 -42t-66 -22z" />
<glyph unicode="&#x201a;" horiz-adv-x="636" d="M217 0v223h203v-286q0 -58 -20 -103.5t-52.5 -72.5t-64.5 -42t-66 -22v113q42 4 72 41.5t30 85.5v63h-102z" />
<glyph unicode="&#x201c;" horiz-adv-x="864" d="M162 946v289q0 99 58.5 160t144.5 80v-111q-44 -13 -73.5 -47t-29.5 -82v-66h103v-223h-203zM500 946v289q0 99 58 160t144 80v-111q-44 -13 -73 -46.5t-29 -82.5v-66h102v-223h-202z" />
<glyph unicode="&#x201d;" horiz-adv-x="864" d="M162 905v111q44 13 73 46.5t29 82.5v65h-102v224h203v-289q0 -99 -58.5 -160t-144.5 -80zM500 905v111q44 13 73 46.5t29 82.5v65h-102v224h202v-289q0 -99 -58 -160t-144 -80z" />
<glyph unicode="&#x201e;" horiz-adv-x="864" d="M162 0v223h203v-286q0 -97 -49.5 -153.5t-153.5 -86.5v113q44 8 73 43t29 84v63h-102zM500 0v223h202v-286q0 -97 -50.5 -155t-151.5 -85v113q44 8 73 43t29 84v63h-102z" />
<glyph unicode="&#x2020;" horiz-adv-x="1024" d="M51 901v139h379v394h164v-394h379v-139h-379v-1280h-164v1280h-379z" />
<glyph unicode="&#x2021;" horiz-adv-x="1024" d="M51 369v139h379v393h-379v139h379v394h164v-394h379v-139h-379v-393h379v-139h-379v-748h-164v748h-379z" />
<glyph unicode="&#x2022;" horiz-adv-x="1228" d="M410 717q0 86 58.5 145.5t145.5 59.5q85 0 145 -60t60 -145q0 -87 -60 -146t-145 -59q-88 0 -146 58.5t-58 146.5z" />
<glyph unicode="&#x2026;" horiz-adv-x="1906" d="M217 0v223h203v-223h-203zM852 0v223h203v-223h-203zM1487 0v223h203v-223h-203z" />
<glyph unicode="&#x202f;" horiz-adv-x="393" />
<glyph unicode="&#x2039;" horiz-adv-x="585" d="M127 473v168l305 268v-168l-217 -184l217 -184v-168z" />
<glyph unicode="&#x203a;" horiz-adv-x="585" d="M154 205v168l217 184l-217 184v168l305 -268v-168z" />
<glyph unicode="&#x205f;" horiz-adv-x="491" />
<glyph unicode="&#x20ac;" d="M20 508l50 115h94q-2 12 -2 36v39q0 31 4 109h-146l50 115h106q8 113 52.5 224t117.5 187q137 144 377 144q181 0 291 -72q2 -1 11 -8t15.5 -12t17.5 -15t20.5 -19.5t20.5 -23.5t21 -29l-86 -149q-35 63 -86 102q-53 41 -104.5 56.5t-122.5 15.5q-153 0 -240 -94 q-48 -52 -78.5 -137t-35.5 -170h569l-49 -115h-531q-4 -70 -4 -102v-41q0 -27 2 -41h455l-49 -115h-393q5 -83 35 -165t79 -138q50 -57 102 -75.5t117 -18.5q67 0 116 15t89 56q50 53 70 133h172q-25 -135 -107 -227q-70 -79 -154 -105t-184 -26q-232 0 -368 143 q-70 76 -113 187.5t-49 220.5h-152z" />
<glyph unicode="&#x2122;" horiz-adv-x="1763" d="M41 1321v113h616v-113h-231v-604h-154v604h-231zM817 717v717h205l192 -494l19 -72h8l16 72l193 494h205v-717h-154v457l8 92h-10l-211 -549h-106l-209 549h-10l8 -92v-457h-154z" />
<glyph unicode="&#x25ca;" horiz-adv-x="860" d="M102 717l328 717l328 -717l-328 -717zM229 717l201 -438l201 438l-201 438z" />
<glyph unicode="&#xe000;" horiz-adv-x="1044" d="M0 0v1044h1044v-1044h-1044z" />
</font>
</defs>
</svg>
